<?xml version="1.0" standalone="no"?>
<!DOCTYPE svg PUBLIC "-//W3C//DTD SVG 1.1//EN" "http://www.w3.org/Graphics/SVG/1.1/DTD/svg11.dtd" >
<svg xmlns="http://www.w3.org/2000/svg" xmlns:xlink="http://www.w3.org/1999/xlink" version="1.1">
<metadata></metadata>
<defs>
<font id="the_secretregular" horiz-adv-x="587" >
<font-face units-per-em="2048" ascent="1638" descent="-410" />
<missing-glyph horiz-adv-x="512" />
<glyph horiz-adv-x="0" />
<glyph horiz-adv-x="682" />
<glyph unicode=" "  horiz-adv-x="512" />
<glyph unicode="&#x09;" horiz-adv-x="512" />
<glyph unicode="&#xa0;" horiz-adv-x="512" />
<glyph unicode="!" horiz-adv-x="368" d="M39 -27q0 8 10 14.5t27 6.5q16 0 26.5 -6t10.5 -15q0 -10 -11.5 -16t-25.5 -6q-15 0 -26 6t-11 16zM63 268q0 14 5 35q49 311 141 617q72 244 100 397q8 43 10 59q4 23 21 25l18 2q14 0 25 -8q6 -6 6 -17.5v-17.5q-6 -76 -27 -176q-25 -125 -66.5 -267.5t-53.5 -185.5 q-72 -240 -115 -457q-6 -16 -2 -34l2 -4q0 -10 -14 -15h-13q-14 0 -23 8.5t-11 22.5q-2 6 -3 16z" />
<glyph unicode="&#x22;" horiz-adv-x="409" d="M2 822q-6 5 2 20l14 18q55 88 70 168q4 33 4 49t-4 49q-2 4 -2 11q0 10 7 13t26 3q45 0 51 -49v-31q-8 -117 -53 -188q-27 -37 -51 -58q-12 -10 -35 -10t-29 5zM190 852q0 8 5.5 18.5t7.5 16.5q8 20 21.5 49t27.5 68q23 55 24 98v6q0 12 -12 14q-14 8 -14 25q0 12 6 20 q8 12 33 21q2 0 6 2t10 2h6q25 0 31 -23q4 -10 4 -30q2 -37 -8 -88q-23 -84 -80 -177q-20 -31 -51 -32h-4q-12 0 -13 10z" />
<glyph unicode="#" horiz-adv-x="1024" d="M-23 96q0 8 7 10q18 8 34 11q131 25 220 45l26 6q16 2 21 25q4 31 22 124l2 17q0 8 -8 8q-10 0 -18 -2l-117 -14q-35 -4 -105 -9h-6q-10 0 -16 2q-2 0 -10.5 2.5t-8.5 10.5q-2 10 17 14l37 8q131 16 196 27q6 0 21.5 1t23.5 7q10 10 12.5 28.5t2.5 24.5q41 279 63 330 q8 18 27 19q16 0 23.5 -5.5t5.5 -21.5q-12 -158 -39 -340q-4 -12 0 -16q2 -4 10 -5q33 6 88 15q16 4 18 18l13 60l49 243l22 92q4 20 13.5 25.5t27.5 1.5q23 -2 23 -22q0 -39 -12 -117l-9 -62q0 -8 -12 -90l-20 -110v-6q0 -10 16 -9q53 8 160 29l20 2q14 0 23 -6q4 0 7 -2 t3 -6q0 -8 -8 -13q-10 -6 -23.5 -9t-17.5 -5l-152 -29l-18 -4q-14 -2 -17.5 -5t-5.5 -17q-8 -37 -20 -107q8 -4 14 -1t8 3q53 18 156 60q14 6 31 6q14 0 20 -2q12 -2 14.5 -10.5t-8.5 -16.5q-14 -14 -39 -24q-43 -18 -96 -38t-74 -26l-22 -6q-14 -2 -19 -20l-12 -62 q-31 -160 -41 -223l-22 -143q0 -6 -4 -19q-4 -16 -11.5 -23.5t-21.5 -7.5q-25 0 -32 7.5t-5 27.5q10 106 18 166q23 152 33 227q0 2 2 12.5t-2 18.5q-35 -8 -104 -29q-10 -2 -15 -20q-10 -49 -24.5 -137t-22.5 -156l-2 -10q0 -6 5 -9t16 -8q12 -10 10 -22q-16 -57 -29 -84 q-10 -16 -30 -16q-23 0 -31 6t-10 24q-2 8 -2 29q0 43 20 219q16 147 14 160l-94 -17q-63 -14 -143 -20h-17q-20 0 -30 2q-6 2 -9 8zM375 221q-4 -12 2 -22q18 3 100 28q10 2 15 19l20 114q0 12 -4 17l-94 -17q-16 -4 -19 -16z" />
<glyph unicode="$" horiz-adv-x="1040" d="M-188 776q0 8 4 29q14 45 47 96q51 72 143 150q223 182 492 266q12 4 27.5 7t31.5 7q6 18 15.5 40t17.5 48q10 29 24 62q8 16 13.5 19t23.5 1q16 -2 17 -18q0 -10 -2 -17.5t-4 -13.5l-31 -109q16 4 26 5q20 2 64 2q80 0 135 -21q20 -6 39 -18l23 -21q8 -10 9 -20t-3 -15 q-4 -4 -15 -4q-6 0 -18 4q-6 0 -8 5q-23 35 -59 45t-89 10q-49 0 -117 -15q-88 -309 -114 -413l-27 -111q-8 -33 -10 -49l39 -8q96 -20 164 -68q131 -90 131 -268t-127 -328q-121 -143 -285 -200l6 -48q6 -35 19 -63q6 8 8 18.5t2 14.5q6 20 31 20q6 0 16 -6q4 -4 4 -12 q0 -47 -22 -86q-16 -23 -41 -23q-31 0 -47 25q-10 12 -25 49q-14 51 -23 88q-27 -6 -57 -6q-41 0 -78 14q-43 14 -66.5 47t-23.5 80q0 104 60 207l18 25q37 49 86 49q20 0 39 -6l12 118q14 115 47 271q10 47 15 63q-63 2 -191 -6l-45 -4q-98 -8 -147 -8q-66 0 -107 14 l-29 15q-39 25 -38 71zM-106 766q0 -41 45 -47q20 -4 34 -4q16 0 45 4l211 14q98 4 148 2q2 10 9 36t11 44q57 223 142 463l-29 -8l-18 -6q-283 -111 -490 -320q-59 -59 -82 -102q-27 -41 -26 -76zM168 -31q0 -37 14 -59q23 -41 64 -41q28 0 63 10l-10 84q-6 61 -6 125 q-2 61 0 123q-33 6 -62 -37q-63 -104 -63 -205zM377 80q0 -88 6 -170q193 94 295 289q47 98 47 188q0 203 -180 277q-31 12 -88 24l-6 -29q-29 -133 -50 -270q-25 -176 -24 -309z" />
<glyph unicode="%" horiz-adv-x="1228" d="M41 -246q4 53 16.5 113.5t16.5 79.5q102 504 348 999l10 21q-2 8 -10 8q-82 0 -111 92q0 6 -4 10q-6 -2 -16 -16q-45 -57 -94 -98q-39 -31 -80 -31q-29 0 -46.5 18.5t-19.5 44.5v9q0 35 17 63q23 47 49 86q51 72 108 113q51 39 107 39q10 0 35 -5q37 -6 55 -36 q4 -8 4 -13q0 -10 -14 -12h-6q-14 0 -23 10q-23 18 -41 19q-23 0 -43 -15q-59 -35 -119 -127q-37 -61 -47 -98q0 -4 -3 -16.5t-1 -22.5q12 4 35 27q66 63 129 176q18 35 45 35q12 0 20 -2q12 -4 16.5 -11.5t4.5 -21.5v-64q0 -53 22 -90q12 -20 35 -20q20 0 35 20l12 23 q96 172 176 285q49 68 74 90q27 27 64 26q55 0 55 -49q0 -27 -8 -49.5t-25 -54.5q-45 -86 -127 -174q-61 -66 -123 -109q-16 -8 -30 -35q-145 -283 -263 -606q-104 -299 -163 -594q-4 -18 -9 -55q-4 -23 -18 -23q-4 -2 -12 -2q-21 0 -28 10.5t-5 32.5zM334 -80q0 51 16 107 q29 94 80 170q16 25 27 34q18 18 43 13q23 -4 22 -23q0 -12 13 -16q27 -10 40 -49q10 -35 11 -62q0 -27 -11 -61q-29 -94 -96 -164q-33 -35 -76 -35q-28 0 -44.5 13.5t-22.5 41.5q-2 10 -2 31zM406 -70q0 -12 4 -41q14 12 34 39q55 86 68 158q2 8 2 25q0 31 -10 53 q-8 -4 -14.5 -12.5t-10.5 -12.5q-2 -2 -5 -7t-7 -7q-18 -6 -27 -39q-8 -20 -20 -66q-14 -51 -14 -90z" />
<glyph unicode="&#x26;" horiz-adv-x="1167" d="M29 -166q0 45 20 100q27 78 105 199q106 164 290 340l21 19q0 4 4 10q-72 -18 -90 -21q-16 -2 -47 -2q-86 0 -130 39t-44 113q0 90 55 194q143 270 401 414l13 39l57 186q14 43 25 68q8 25 24 24q33 0 33 -20q0 -10 -8 -35l-49 -209l-2 -8q82 31 151 31q49 0 78 -15 q18 -10 29 -28q4 -12 4 -17q0 -12 -9.5 -22t-23.5 -10q-16 0 -18 16q-6 43 -50 43h-4q-20 0 -53 -8q-49 -12 -115 -47q-8 -43 -12 -86q-2 -12 -5 -16.5t-13 -4.5q-49 0 -56 39v12q-147 -100 -258 -270q-70 -102 -94 -203q-10 -37 -10 -65q0 -18 6 -41q14 -70 82 -70 q14 0 22 2q63 10 146 49q86 41 164 93q20 14 49 14q16 0 26 -4q16 -6 17 -14q0 -6 -10 -17q-12 -12 -41 -33q-238 -190 -408 -419q-84 -121 -127 -211q-29 -55 -39 -103q-8 -29 -4 -65q0 -10 8 -31q10 -16 20.5 -21.5t28.5 -1.5q39 8 84 33q74 37 164 101q0 61 31 75 q10 8 22 8q16 0 25 -26q176 141 385 350l84 92q16 18 41 19q12 0 18 -4q8 -4 10.5 -10.5t-1.5 -14.5q-6 -14 -19 -27q-29 -35 -119 -131q-106 -109 -180 -178.5t-153 -132.5q-27 -25 -56 -43l6 -61q4 -35 17 -101q14 -49 22 -67q4 6 6.5 17t4.5 17q2 10 11 17.5t19 7.5 t17 -6q6 -6 6 -17q0 -51 -21 -92q-14 -25 -45 -24q-31 0 -49 24q-16 19 -26 54q-27 68 -46 178q-63 -41 -110 -64q-74 -35 -131 -43q-12 -2 -35 -2q-29 0 -57 6q-84 23 -84 119z" />
<glyph unicode="'" horiz-adv-x="231" d="M4 850q4 8 8 12t6 8q55 88 70 168q4 33 4 49q0 14 -4 48q-2 4 -2 10q0 10 7 14t26 4q45 0 51 -49v-31q-6 -117 -53 -188q-20 -33 -51 -57q-14 -12 -35 -13q-43 0 -27 25z" />
<glyph unicode="(" horiz-adv-x="327" d="M41 229q0 78 6 142q25 330 107 590q76 244 194 401q31 45 70 82q27 23 49 18q2 0 6 -2t6 -4q2 -6 -6 -14q-59 -59 -102 -133t-82 -170q-61 -160 -101 -338q-53 -242 -63 -568q-2 -35 -2 -108q0 -125 10 -283l6 -30v-5q0 -16 -18 -18q-5 -2 -15 -2q-33 0 -38 43 q-12 98 -19 199q-8 90 -8 200z" />
<glyph unicode=")" horiz-adv-x="452" d="M-28 -213q-3 6 5 14q18 18 32 45t18 37q227 514 282 1012q2 23 10.5 106.5t8.5 157.5q0 117 -25 191q-4 14 -16 39q-12 31 -35 30q-12 0 -12 11q0 10 8 12q10 10 33 10q16 0 36 -8q20 -12 39 -39q29 -45 41 -102q12 -66 13 -97q4 -119 -15 -301q-49 -479 -295 -1018 q-29 -61 -49 -90q-14 -25 -47 -24q-6 0 -18 4q-11 4 -14 10z" />
<glyph unicode="*" horiz-adv-x="493" d="M57 1061q2 8 19 8l80 4q23 0 47 6q0 6 -3 13.5t-5 13.5q-33 78 -43 119q-2 6 -2 16q-2 10 8 14q6 4 18 5q25 0 37 -19q2 -2 27 -59q2 -4 5 -15.5t11 -21.5q14 16 35 45q16 18 39 18q43 0 26 -24q-6 -10 -30 -45q-10 -12 -20.5 -24.5t-20.5 -24.5q20 0 82 10q16 6 36 2 q14 0 17 -8v-4q0 -6 -12 -11q-18 -8 -33 -10q-45 -8 -66 -10q-20 -2 -20 -10t4 -17l47 -119l8 -24v-8q0 -12 -12 -17q-4 -2 -12 -2q-18 0 -25 15q-20 39 -57 116l-13 25q-8 0 -16 -12l-68 -78q-23 -23 -22 -23q-18 -14 -45 -12q-10 0 -17 6q-2 4 3.5 8t7.5 6l20 23l68 86 q12 12 12 18q-2 4 -8 4q-10 0 -25.5 -1t-36.5 1q-10 0 -30 5q-14 4 -15 12z" />
<glyph unicode="+" horiz-adv-x="606" d="M20 352q0 14 7.5 18.5t19.5 6.5q27 2 80 2q25 0 32 7t17 48q8 33 29 94q10 33 35 68q14 18 41 18q14 0 24 -10q10 -14 10 -24q0 -8 -10 -39q-4 -18 -12 -45t-14 -45q-18 -68 -19 -68q70 0 111 14q20 4 26 4q29 0 29 -20q2 -14 -12.5 -27.5t-36.5 -17.5q-23 -4 -55.5 -7 t-51.5 -5q-23 -2 -26.5 -9.5t-3.5 -44.5q0 -47 16 -92l4 -18q0 -16 -20 -23q-33 -8 -59.5 19.5t-30.5 74.5q-2 6 -3 21l3 37v6q0 23 -19 22h-33l-55 11q-23 4 -23 24z" />
<glyph unicode="," horiz-adv-x="282" d="M-88 -233l12 20q59 86 70 168q4 16 4 49q0 31 -4 47v10q0 10 7 14.5t26 4.5q47 0 49 -51q2 -8 1 -15.5t-1 -13.5q-4 -111 -53 -188q-16 -29 -52 -58q-16 -12 -32 -12q-41 0 -27 25z" />
<glyph unicode="-" d="M20 360q0 16 27 27q12 6 41 10q59 8 84 11q70 8 109 8q51 0 75 -4q47 -6 52 -27q2 -2 2 -6q0 -10 -7 -17q-8 -8 -30 -18q-25 -4 -37 -4q-18 0 -51 4h-29q-37 0 -57 -2q-27 0 -84 -4l-39 -2q-20 0 -39 6q-12 4 -14 12q-2 2 -3 6z" />
<glyph unicode="." horiz-adv-x="272" d="M0 37q0 10 13.5 18t29.5 8q18 0 31.5 -8t13.5 -18t-13.5 -17.5t-31.5 -7.5q-16 0 -29.5 7.5t-13.5 17.5z" />
<glyph unicode="/" horiz-adv-x="608" d="M0 -147l2 81q8 205 70 416q123 403 348 797q96 168 170 272q33 41 51 58q20 20 41 8q14 -4 6 -19l-14 -22q-307 -508 -481 -1026q-72 -211 -97 -389q-14 -104 -14 -179l2 -40q4 -25 20 -33q12 -4 13 -13q0 -8 -11 -14q-16 -12 -32 -12q-20 0 -38 11t-26 32q-10 37 -10 72 z" />
<glyph unicode="0" horiz-adv-x="585" d="M-29 244q0 190 70 454l18 68q4 12 4 14q0 8 -8 17q-14 16 -14 43q0 35 16 67q94 172 238 234q29 8 43 8q82 0 115 -80q18 -43 22 -100q8 -49 8 -107q0 -31 -4 -92q-23 -319 -131 -598q-33 -86 -78 -149q-33 -39 -59 -62q-37 -25 -82 -24q-59 0 -96 55q-27 37 -45 104 q-16 66 -17 148zM49 264q0 -68 4 -100q6 -61 27 -107q14 -39 39 -65q14 -10 22 -10q6 0 19 8q32 29 65 82q31 55 60 135q90 270 104 565q2 27 2 78q0 82 -10 137q-8 57 -27 86q-16 25 -30 25q-8 0 -21 -6q-10 -6 -22.5 -14.5t-28.5 -18.5q-23 -16 -39 -49q-31 -51 -53 -125 q-68 -201 -101 -457q-10 -92 -10 -164z" />
<glyph unicode="1" horiz-adv-x="331" d="M-139 707q0 10 11 17t15 9q90 82 148.5 139.5t109.5 122.5q90 115 127 199l9 16q23 41 57 41q14 0 27 -6q8 -2 8 -12q0 -6 -8 -31q-84 -188 -146.5 -397t-118.5 -459q-35 -166 -53 -317l-2 -45q0 -59 25 -88q6 -6 6 -13q0 -16 -27 -16q-22 0 -38.5 19.5t-24.5 50.5 q-6 20 -6 65q0 100 20 227q39 244 113 525q6 25 28 102q0 2 3 9t-1 14q-8 0 -14 -7.5t-8 -9.5q-70 -70 -148 -135l-43 -31q-18 -8 -22 -10l-25 -2q-16 0 -20 12z" />
<glyph unicode="2" horiz-adv-x="550" d="M-94 0q0 18 12 37q94 160 143 237q76 121 240 351l64 90q76 111 100 155q35 68 49 113q10 31 10 57q0 23 -4 31t-14 8q-25 0 -53 -12q-160 -61 -273 -209q-55 -70 -86 -164q-2 -4 -6 -15t-4 -22q0 -10 6 -22q4 -4 -9 -12.5t-26 -8.5q-10 0 -14 4q-16 14 -16 39q0 14 2 23 q8 53 32 108q45 106 140 199q100 100 225 141q31 12 63 13q29 0 58 -13q20 -10 29.5 -25.5t13.5 -39.5q2 -6 2 -16q0 -41 -13.5 -77t-30 -70t-22.5 -46q-39 -76 -94 -164q-94 -145 -177 -267t-151 -224l-79 -129l-31 -50l-8 -16q8 -10 16 -7t10 3q16 2 83 9t124 18.5 t107 23.5l16 4q18 0 33 -14q6 -6 6 -13.5t-6 -11.5q-10 -10 -23 -16q-31 -14 -78 -23q-82 -18 -198 -28q-49 -4 -72 -8h-18q-27 0 -39 4q-16 2 -27.5 18.5t-11.5 36.5z" />
<glyph unicode="3" horiz-adv-x="634" d="M-125 18q0 35 25.5 61.5t58.5 26.5q23 0 29 -6t-4 -22q-2 -6 -7.5 -12.5t-9.5 -14.5q-4 -10 -4 -26t10.5 -26.5t28.5 -10.5q27 0 49.5 8t65.5 27q119 61 231 178q53 53 88 114q25 43 33 78q6 23 6 39q0 37 -19.5 60.5t-52.5 27.5h-18q-14 0 -39 -4q-43 -8 -86 -24 q-25 -8 -41 -9q-8 0 -24 4q-23 6 -23 21q0 10 8 20q6 10 41 50q104 127 162 215q55 80 80 155q12 29 12 62q0 29 -12 45t-37 18h-8q-27 0 -45 -8q-184 -74 -246 -242q-8 -20 -25 -20q-27 0 -28 26v7q0 16 4 24q10 41 31 68q113 158 280 184q10 2 33 2q35 0 61 -10 q59 -16 60 -86q0 -74 -49 -168q-57 -121 -131 -206t-78 -91q47 10 86 10t69 -8q55 -10 85 -46t30 -89q0 -27 -8 -49q-8 -45 -35 -84q-170 -262 -438 -336q-35 -10 -78 -10q-63 0 -98 28q-23 16 -23 49z" />
<glyph unicode="4" horiz-adv-x="593" d="M-2 627q0 31 7 58.5t22 68.5q31 84 86 182l151 250q6 10 23 31q12 18 32 18q25 0 25 -12q0 -6 -4 -14.5t-6 -16.5q-27 -61 -92 -180q-86 -150 -115 -217q-20 -47 -31.5 -79t-15.5 -67q-2 -12 -2 -37q0 -39 15.5 -60.5t43.5 -23.5q10 -2 35 -2q68 0 117 21q25 12 37 39 q33 84 98 192q18 33 39 58q12 16 33 16q33 0 32 -21l-4 -18q-10 -31 -30.5 -72t-30.5 -63q-100 -217 -150 -393q-35 -123 -49 -240q-4 -33 -4 -49q0 -43 10 -72q2 -4 2 -10q0 -14 -18 -14h-2q-25 0 -39 20q-23 31 -23 78q-6 80 17 188q33 166 80 303q-23 -2 -56.5 -5 t-56.5 -1q-51 0 -94 15q-82 27 -82 129z" />
<glyph unicode="5" horiz-adv-x="557" d="M-160 -25q0 33 37 57.5t70 16.5q14 -4 18 -10l2 -8q0 -4 -10 -15q-16 -16 -20 -36l34 12q94 37 179 121q160 160 223 352q27 88 26 143q0 12 -4 41q-4 45 -24 84q-35 63 -95 64q-14 0 -22 -2q-63 -14 -115 -60q-14 -10 -39 -35q-10 -10 -24 -10q-16 0 -35 21q-8 10 -8 22 q0 23 10 47q66 184 109 269q2 4 20 38.5t43 32.5q125 -4 246 37q6 2 20 2t23 -4q10 -4 14 -16q0 -10 -8 -15q-10 -6 -31 -14q-72 -23 -143 -31l-78 -4q-20 0 -25 -14q-6 -18 -40 -96q-29 -63 -56 -140l-4 -16q4 2 22.5 10t47 15.5t61.5 7.5q16 0 45 -4q63 -10 105.5 -54.5 t58.5 -111.5q6 -39 6 -76q0 -41 -6 -84q-25 -139 -119 -283q-129 -201 -321 -278q-70 -31 -137 -25q-13 0 -21 5.5t-12 7.5q-23 12 -23 36z" />
<glyph unicode="6" horiz-adv-x="696" d="M-18 231q0 80 20 177q25 117 89.5 256t150.5 256.5t172 171.5q57 29 98 28q14 0 20 -2q29 -4 46 -24q4 -8 4 -15q0 -10 -13 -14q-16 -4 -20 -4q-12 0 -19 8q-10 10 -24 10t-29 -10q-33 -18 -86 -68q-88 -88 -162 -225q-86 -168 -127 -352q0 -2 -1 -7t-1 -16 q25 18 51.5 35t49.5 25q55 18 98 18q98 0 135 -88q29 -70 29 -137q0 -41 -10 -88q-47 -178 -205 -242q-35 -14 -62 -14q-100 0 -153 86q-37 61 -47 170q-4 45 -4 65zM78 231q0 -53 4 -79q10 -100 49 -152q29 -37 57 -37q23 0 48 17q63 38 100 110t37 150q0 41 -8 71 q-14 57 -43 92q-23 27 -52 27q-14 0 -28 -6q-51 -18 -86 -57q-18 -23 -27 -41q-6 -12 -6 -23q0 -12 12 -22q6 -6 6 -11q0 -8 -10 -14q-18 -6 -37 -6q-16 0 -16 -19z" />
<glyph unicode="7" horiz-adv-x="409" d="M-20 -49q0 27 8 80q59 354 188 665l12 29q-8 4 -25.5 9t-25.5 11q-10 10 -10 17q0 10 16 14q4 2 13 2q8 0 18 -3t14 -3h9q12 0 18 14l29 64q43 92 63 154q12 33 12 55l-100 -15q-41 -8 -90 -8l-57 2q-39 4 -64 21q-14 4 -14 14q0 16 20 17q16 0 25 -3q37 -12 72 -12 q25 0 54.5 4t39.5 6q37 4 94 17l35 2q10 0 35 -4q14 -2 14 -31q0 -49 -43 -164l-39 -106q0 -2 -3 -7.5t1 -11.5q4 -2 14 -2h15q12 0 16 -2q12 -4 12 -12v-2q0 -6 -8 -14q-16 -10 -51 -15q-25 -2 -33 -26q-72 -195 -119 -353.5t-73 -316.5q-12 -57 -13 -86q0 -18 2 -29v-4 q0 -12 -12 -18q-14 -6 -22 -6t-29 14q-18 12 -18 43z" />
<glyph unicode="8" horiz-adv-x="655" d="M-119 51q0 23 2 33q6 37 21 66q18 45 49 96q61 100 178 252q8 14 29 39l94 127q12 16 12 20q0 6 -12 27l-14 26q-33 61 -53.5 110.5t-32.5 106.5q-8 -37 -29 -36q-31 0 -37 38v15q0 27 8 43q8 23 29 39q8 8 28.5 20t30.5 23q2 4 13 4q25 0 43 2t30 4q49 8 74 8 q72 0 125 -20q25 -10 45 -27q35 -27 35 -72q0 -16 -2 -22q-6 -31 -19 -55q-12 -27 -65 -109l-94 -131q-10 -12 -11 -19q0 -6 11 -22q47 -102 69 -174q25 -88 25 -168q0 -106 -47 -197q-33 -70 -109 -127q-100 -72 -215 -71q-37 0 -55 4q-35 2 -74 22l-24 15q-57 43 -58 110z M-45 41q0 -49 31 -70l22 -12q29 -12 58 -12q14 0 20 2q160 16 246 157q53 88 53 203q0 143 -76 289q-8 -8 -10 -12l-141 -180q-88 -113 -146 -207q-31 -51 -47 -101q-10 -31 -10 -57zM213 1010q0 -23 4 -37q0 -4 4 -21q10 -51 31.5 -98t56.5 -109q37 47 60 82q43 59 69 115 q16 35 21 62v8q0 20 -21 32q-16 10 -49 15q-78 4 -141 -15q-20 -4 -27.5 -11t-7.5 -23z" />
<glyph unicode="9" horiz-adv-x="573" d="M0 762q0 59 45 131q74 111 186 182q76 47 154 60q14 2 39 2q27 0 51 -7q16 -4 29 -12q14 -14 20 -37l2 -14q0 -16 -14 -39q-150 -242 -268 -539q-90 -221 -125 -389q-16 -86 -23 -131v-6q0 -6 4 -18q4 -6 4 -17q0 -16 -16 -22q-6 -4 -25 -4q-22 0 -31 12t-9 41 q0 59 18 147q51 301 205 621l14 29q8 4 4 10q-4 4 -4 -4q-18 -10 -36.5 -23.5t-37.5 -23.5q-61 -37 -110 -31l-25 4q-51 14 -51 78zM77 781.5q-5 -17.5 1 -33.5q4 -18 9 -22.5t22 1.5q4 2 22 10q51 25 113 80q92 84 188 215q4 6 16.5 22.5t28.5 24.5q-12 18 -33 23h-16 q-20 0 -39 -6q-172 -49 -285 -240q-16 -27 -22 -55q0 -2 -5 -19.5z" />
<glyph unicode=":" horiz-adv-x="313" d="M29 156q0 10 12 17t31 7q18 0 31.5 -7t13.5 -17t-13.5 -18.5t-31.5 -8.5q-19 0 -31 8t-12 19zM55 383q4 18 33 18q18 0 30.5 -7t10.5 -17q0 -18 -29 -19q-20 0 -33.5 6.5t-11.5 18.5z" />
<glyph unicode=";" horiz-adv-x="339" d="M-47 -127l12 18q59 90 70 170q4 14 4 48q0 33 -4 49v10q0 10 7 14t26 4q45 0 49 -51q2 -10 1 -17t-1 -12q-4 -111 -54 -188q-16 -29 -51 -57q-16 -12 -32 -13q-43 0 -27 25zM59 408q4 18 33 18q18 0 30.5 -7t12.5 -18q-2 -18 -31 -18q-18 0 -31.5 6t-13.5 19z" />
<glyph unicode="&#x3c;" horiz-adv-x="653" d="M-20 324q0 20 20 38q12 16 39 27q45 20 67 29q111 37 218 78q70 31 107.5 53t64.5 59q8 14 16 15q8 0 14 -17q6 -12 6 -24q0 -37 -30 -68l-27 -25q-25 -16 -47 -28q-12 -6 -90 -37q-72 -20 -119 -39q-18 -4 -78 -23q-4 0 -33.5 -8t-33.5 -22q-2 -8 2 -17q6 -12 19.5 -24 t17.5 -17q47 -33 172 -106q39 -25 63.5 -40t32.5 -22q8 -8 8 -14q0 -12 -15.5 -23.5t-29.5 -11.5q-20 0 -42.5 11.5t-31.5 15.5q-43 23 -73 41q-78 45 -140 98q-20 14 -39 33q-20 20 -30 39q-8 14 -8 29z" />
<glyph unicode="&#x3e;" horiz-adv-x="841" d="M84 66q0 6 6 14l19 20q150 150 319 248q41 25 51 35l-84 27q-84 33 -137 73q-23 20 -33 31q-6 12 -6 18q0 12 17 23q16 6 32 6t35 -6q4 -2 5 -6t-3 -8l-8 -6q4 -8 25 -23q66 -45 170 -78q45 -12 65 -20q29 -12 29 -31q0 -18 -21 -33q-8 -8 -20 -14q-90 -61 -192.5 -141 t-135.5 -105q-8 -6 -18.5 -14t-26.5 -19q-16 -14 -41 -14q-18 0 -35 8q-12 7 -12 15z" />
<glyph unicode="?" horiz-adv-x="722" d="M27 674q0 33 8 55q74 285 241 467q109 121 242 176q70 27 121 27q166 0 166 -150q0 -74 -41 -155q-37 -72 -121 -181q6 8 -76 -94q-78 -94 -116 -145q-74 -98 -121 -189q-59 -113 -60 -219q0 -25 -5 -33t-19 -10l-13 -2q-14 0 -23 7.5t-13 17.5q-10 35 -11 61 q0 90 39 168q57 119 156 238q8 10 145 176q84 100 133 172q55 90 66 172v18q0 31 -12 58q-18 51 -66 51q-14 0 -22 -2q-12 -2 -37 -10q-68 -20 -144 -76q-109 -82 -190 -201q-129 -199 -174 -399q-4 -18 -10.5 -25.5t-16.5 -7.5q-27 0 -26 35zM219 -2q0 10 12.5 17.5 t30.5 7.5t30.5 -7.5t12.5 -17.5t-12 -18.5t-31 -8.5q-18 0 -30.5 8.5t-12.5 18.5z" />
<glyph unicode="@" horiz-adv-x="1085" d="M-139 -82q0 156 63 330q135 379 422 639q127 109 260 160q80 29 160 28q106 0 176 -53t90 -150q6 -39 6 -79q0 -66 -14 -121q-57 -231 -213 -418q-41 -55 -96 -88q-45 -29 -90 -29q-74 0 -95 62l-6 20q-31 -49 -71 -96q-49 -49 -105 -49q-47 0 -59 53q-2 10 -2 33 q0 27 4 39q35 170 158 290q55 51 120 52q47 0 60 -37q4 -20 4 -31q0 -16 -2 -22q-23 -98 -23 -183q0 -29 2 -41l4 -16q6 -25 15 -25q8 0 22 13q47 35 84 82q145 186 203 411q14 66 14 111q0 39 -8 69q-8 57 -47 105q-49 61 -127 61q-82 0 -182 -53q-94 -47 -187 -133 q-190 -180 -325 -449q-86 -174 -119 -354q-12 -72 -12 -141q0 -76 16 -135q18 -74 62 -125q51 -63 116 -64q33 0 66 13q53 18 114 61q201 150 332 315q12 16 39 17q16 0 27 -8q10 -10 4 -21q-6 -16 -19 -31q-61 -80 -149 -159q-84 -84 -172 -146q-104 -72 -209 -82l-12 -6 l-45 2l-45 12q-88 23 -142 103q-68 100 -67 264zM358 168q0 -23 13 -47q14 4 26 20q98 121 127 260q6 29 31 39q4 0 16 4q10 4 11 13q0 6 -7 24q-8 23 -28 23q-8 0 -21 -6q-12 -8 -18 -15q-125 -125 -150 -303v-12z" />
<glyph unicode="A" horiz-adv-x="1599" d="M-307 242q-10 16 9 27.5t42 17.5q303 115 455 166q47 125 114 282q111 248 228 443q109 178 200 278q68 76 129 109q29 16 72 26q14 4 43 4q59 0 95 -29.5t53 -56.5q31 -57 45 -147q14 -86 14 -186q0 -76 -6 -156l-6 -74v-2l-31 -303q41 2 77 2q104 1 158 -13 q72 -18 123 -40q33 -14 33 -51q0 -23 -15.5 -39.5t-39.5 -16.5q-12 0 -19 6l-4 11q0 6 4 13t4 13t-6 10l-6 3q-60 23 -126 27q-46 3 -106 4q-27 0 -57 -1h-26q-12 -106 -25 -233q-22 -234 -22 -386v-13l2 -109q4 -74 20 -137q6 -29 23 -60q16 -25 30 -24q8 0 21 6 q12 4 21.5 9t15.5 9l43 33q121 111 221 217q10 14 23 15h4q18 0 22 -11q4 -4 4 -8q0 -6 -10 -16q0 -2 -16 -23l-177 -180q-43 -43 -81 -64q-45 -26 -85 -26h-3q-78 0 -115 67q-16 39 -25 72q-10 41 -18 127q-6 86 -6 174q0 96 6 195q2 14 2 41q2 27 5 76t7 86l12 159 q-238 -16 -563 -100q-131 -37 -196 -57l-2 -7q-51 -137 -113 -330.5t-102 -340.5q-12 -37 -39 -148l-11 -53l-12 -57q-12 -43 -53 -43q-16 0 -31 8q-25 12 -41 53v6q0 16 23 17q10 0 16 2q8 2 12 45q2 2 2 8l5 20l26 115l55 209q27 96 88 285l62 176q-172 -55 -367 -129 q-45 -16 -69 -17q-12 0 -19 2q-10 2 -20 13zM313 489q240 72 418 103q150 27 318 43l8 110q0 8 16.5 140.5t16.5 314.5q0 139 -21 236q-2 8 -10 39q-12 29 -21 43q-2 2 -8 14t-18 14l-8 2q-8 0 -21 -4q-27 -10 -80 -45q-59 -45 -127 -127q-106 -131 -203 -313 q-137 -258 -260 -570z" />
<glyph unicode="B" horiz-adv-x="1013" d="M-354 786q0 37 32 86q45 72 121 148l17 18q68 66 141 123q184 150 387 242l10 18q29 66 64 103q25 27 43 26q6 0 16 -6q14 -6 4 -24l-41 -70l-2 -6q25 10 78 26q160 55 313 56q127 0 234 -45q72 -31 109.5 -84.5t37.5 -122.5q0 -49 -14 -95t-39 -102q-78 -156 -213 -301 q-213 -231 -485 -401l6 2q-4 -2 -12.5 -8.5t-16.5 -16.5q12 -6 25 -6q98 0 174 -41q47 -23 74 -61q34 -46 34 -106q0 -40 -12 -83q-20 -68 -69 -147q-53 -80 -142 -176q-178 -188 -340 -293q-16 -10 -20 -17.5t-4 -21.5q0 -41 -2 -50t-17 -16q-12 -6 -22 -6q-27 0 -31 25 q-6 27 -23 26l-16 -2q-25 -6 -45 -6q-51 0 -80 32t-29 83q0 41 19 90q27 63 90 139l25 25q18 16 18 47q-6 92 -6 186q0 262 39 514q25 174 63 336q55 221 131 414l29 68l-63 -37q-209 -123 -429 -342l-10 -13q-49 -55 -71 -106q-8 -20 -9 -33q0 -18 17 -33l4 -10 q0 -10 -12 -10q-33 -4 -56.5 16.5t-23.5 48.5zM-18 -506q0 -31 18 -49q11 -12 23 -12q10 0 34 12q8 2 9 18q-12 119 -17 185q-53 -68 -65 -131zM135 -127q0 -25 6 -37l15 6q63 39 198 92l49 19q25 8 33 8t25 -4q8 -8 8 -12q0 -8 -8 -17q-14 -12 -31 -18l-143 -66 q-63 -31 -127 -77q-20 -14 -21 -43q0 -47 2 -72l2 -51q0 -12 2 -43t7 -56q9 3 34 23q150 111 287 260q78 82 125 164q39 59 55 121q10 29 11 63q0 55 -35 94q-27 31 -82 54q-51 16 -119 16q-29 0 -78 -4q-20 -2 -45 -17q-57 -35 -125 -63q-25 -10 -29 -18.5t-6 -40.5 q-8 -106 -8 -244q-2 -12 -2 -37zM158 299l35 12q160 78 309 185q266 190 442 409q98 123 146 230q38 82 38 153q0 76 -38.5 122t-110.5 58q-47 10 -109 11q-92 0 -198 -27q-137 -33 -273 -96l-24 -62l-19 -53q-14 -39 -16 -45q-113 -334 -174 -811q-4 -31 -8 -86z" />
<glyph unicode="C" horiz-adv-x="1208" d="M39 35q0 135 31 270q37 184 143 428q137 301 295 506q90 119 199 209q98 82 192 102q37 4 55 4q70 0 117 -40.5t59 -114.5q4 -37 5 -58q0 -47 -15 -112q-23 -113 -86 -248q-98 -221 -221 -383q-43 -61 -84 -94q-33 -31 -76 -31q-20 0 -31.5 11.5t-11.5 27.5q0 6 4 18 q6 23 20.5 36.5t35.5 13.5q29 0 16 -25q-2 -4 -7 -11t-3 -18q14 6 31 31q35 41 92 135q129 209 205 434q38 118 38 210q0 58 -12 94q-31 77 -90 77h-2q-16 0 -43 -10q-55 -18 -127 -80q-96 -86 -186 -205q-176 -240 -310 -577q-90 -236 -116 -432q-12 -82 -13 -164 q0 -70 9 -127q23 -156 69 -250q31 -61 70 -100q55 -59 121 -60q37 0 73 19q68 33 136 100q121 119 215 299q68 125 100 238q23 66 25 114v11q0 23 -15 28q-8 4 -6 11.5t8 11.5q14 14 37 14q12 0 25 -6q20 -6 28 -45l2 -31q0 -25 -6 -53q-8 -49 -16 -74q-109 -334 -334 -553 q-82 -82 -178 -116q-51 -18 -109 -19q-135 0 -227 115q-72 90 -107 244q-24 96 -24 215v10z" />
<glyph unicode="D" horiz-adv-x="1060" d="M-367 -477q0 33 5 49q14 74 59 141q119 182 326 271q47 16 45 34q-2 33 -2 121q0 283 49 635t178 703q-68 -14 -176.5 -79t-212 -147t-154.5 -145l4 -6q2 -4 10.5 -6t8.5 -11q0 -12 -11.5 -15t-13.5 -3q-10 -2 -27 -2q-53 0 -53 29q0 10 10 26q12 18 29 35 q313 322 682 401q106 23 199 23q49 0 102 -6q150 -20 242 -121q104 -115 104 -338q0 -178 -71 -393q-68 -197 -209 -434q-100 -170 -221 -334q-2 -2 -17.5 -19.5t-11.5 -40.5q6 -35 -9.5 -52t-35.5 -7q-10 4 -26.5 -10.5t-31 -33.5t-20.5 -26q-115 -133 -203 -208 q-111 -96 -215 -144q-92 -39 -162 -39q-57 0 -100 23q-70 37 -70 129zM-268 -471q0 -29 8 -51q14 -49 61 -49q11 0 18 2t13 4q51 12 133 61q76 45 170 135q-29 49 -41 121t-16 125t-6 70q-90 -43 -168 -115t-131 -162q-27 -45 -35 -92q-6 -25 -6 -49zM172 39q0 -20 16 -21h2 q66 0 119 -10t103 -37q4 -2 10 -2q8 0 18 11l13 16q141 195 270 416q143 250 199 467q34 135 34 237v6q0 55 -8 103q-29 203 -194 274q-55 20 -117 25q-14 2 -45 2q-90 0 -215 -29q-14 -4 -19 -14q-186 -604 -186 -1444zM172 -55q0 -109 21 -246l8 -12q108 119 188 223l-4 8 q-65 50 -163 50q-17 0 -34 -1q-16 0 -16 -22z" />
<glyph unicode="E" horiz-adv-x="860" d="M-397 1124v2q0 4 10 15q16 12 27 16q420 236 768 340q279 86 528 86q78 0 147 -14q45 -10 74 -29q57 -33 57 -94l-2 -19q-2 -20 -14 -49q-8 -20 -27.5 -31.5t-40.5 -11.5q-18 0 -26 4q-12 4 -14.5 9.5t4.5 17.5q4 4 4 6q16 31 16 62q0 55 -70 79q-33 10 -73 15 q-29 2 -82 2q-37 0 -115 -8q-270 -29 -559 -144q-266 -102 -522 -241q-10 -8 -27 -15q-20 -10 -37 -10q-22 0 -26 12zM16 451q-4 8 9 16l22 14l66 37q16 12 22 31q41 164 96.5 327.5t141.5 387.5q12 37 26 65q8 16 13.5 20.5t15.5 4.5q39 0 39 -21q0 -12 -8 -33l-117 -389 q-47 -158 -78 -282q0 -4 -3 -12.5t-1 -16.5h6q10 0 17 6q94 47 286 125q20 10 41 10h4q12 0 17 -8l2 -4q0 -6 -8 -14q-16 -16 -52 -29l-41 -18l-145 -62l-82 -41q-29 -16 -43 -22q-20 -12 -26 -33q-43 -205 -67 -360.5t-24 -309.5q0 -125 25 -223q14 -51 33 -82l16 -20 q16 -18 35 -19q27 0 53.5 17.5t59.5 44.5q127 106 282 272q16 16 46 48t53 50q16 14 36 15q10 0 23 -4q31 -8 16 -33q-41 -51 -51 -62q-170 -184 -280 -286q-80 -72 -144 -103q-45 -26 -93 -26h-3q-25 0 -39 4q-27 4 -44 21.5t-46 56.5q-31 41 -49 96q-37 113 -37 270 q0 203 53 473l23 111q-8 0 -17.5 -3t-15.5 -5q-20 -10 -43 -11q-18 0 -21 9z" />
<glyph unicode="F" horiz-adv-x="552" d="M-406.5 1089.5q-1.5 6.5 5.5 12.5l12 10q219 131 402.5 223t367.5 154q219 76 440 90q23 2 44.5 2t39.5 2q68 -2 116 -7t91 -20q31 -10 64 -28q63 -39 63 -117q0 -68 -27 -113q-8 -16 -25.5 -25t-35.5 -9q-14 0 -27 6q-10 4 -12 10t4 16q27 37 27 97q0 80 -62 108 q-31 14 -98 23l-72 2q-141 0 -309 -37q-260 -57 -567 -209q-84 -41 -248 -127q-33 -18 -59.5 -32.5t-49.5 -26.5q-14 -8 -30.5 -13.5t-32.5 -3.5q-8 0 -12 2q-8 4 -9.5 10.5zM-96 279v4q0 8 12 16q18 12 43 28.5t57 34.5q27 14 33 50q43 201 105.5 402.5t148.5 440.5 q16 45 29 64q14 23 35 22q16 0 21 -6t1 -20q-57 -176 -143 -504q-39 -145 -82 -346q0 -2 -1 -9t1 -16l127 49q20 8 28 9q8 0 17 -4q16 -10 6 -25q-12 -16 -37 -23q-47 -18 -137 -63q-23 -8 -29 -37q-16 -96 -41 -272q-16 -141 -16 -246q0 -88 12 -176q6 -55 21 -103 q18 -68 73 -139q2 -2 9.5 -11t3.5 -17q-6 -6 -15 -7q-6 0 -18 4q-27 7 -45 25q-74 70 -100 162q-31 90 -37 201q-4 43 -4 129q0 129 16 233v-2q8 72 25 152q0 2 1 9t-4 13l-47 -22q-31 -14 -53 -11q-14 0 -16 11z" />
<glyph unicode="G" horiz-adv-x="1191" d="M-119 330q0 143 53 299q102 307 351 561q197 207 450 315q45 20 109 39q37 10 69 10q53 0 74 -28l4 -10q0 -8 -12 -13l-14 -2q-14 0 -23 8q-14 12 -29 13q-10 0 -26 -4q-61 -20 -137 -60q-211 -109 -357 -258q-223 -229 -332 -516q-73 -190 -73 -376v-5q0 -86 28 -156 q20 -45 52 -71q27 -16 67 -17q47 0 88 21q57 29 144 106q117 106 260 291q186 242 323 477l19 35q4 6 5 12.5t-3 12.5q-8 10 4 22t37 13q29 0 45 -17t16 -37q-4 -137 -18 -225q-57 -406 -246 -823q-10 -16 -6 -43l2 -35q0 -137 -94 -223q-27 -23 -49 -21q-2 2 -7 2 q-14 0 -24 -18q-47 -78 -88 -133q-57 -76 -109 -113q-35 -27 -65.5 -40t-67.5 -13q-96 0 -127 78q-18 45 -18 94q0 131 80 258q102 168 251 254q86 51 164 51q49 0 78 -14l10 -4q8 0 15 14q12 31 29.5 75t37.5 103q90 262 129 494q12 72 11 86l-33 -51q-188 -293 -377 -494 q-88 -98 -174 -160q-88 -68 -176 -86q-41 -8 -66 -8q-131 0 -196 100q-57 88 -58 230zM242 -514v-21q0 -53 24 -88q18 -25 35 -24q4 0 29 8q31 16 59 45q53 49 113 141q88 135 186 344l25 54q2 4 2 12q0 6 -6 16q-23 29 -56 29q-14 0 -22 -2q-53 -14 -101 -49 q-143 -96 -229 -252q-59 -115 -59 -213zM682 -295h1t1 -2t4 2q-2 -2 -2 0h-4zM698 -279v-2v2z" />
<glyph unicode="H" horiz-adv-x="1331" d="M-403 655q0 57 21.5 113.5t59.5 136.5q59 115 150 234q80 106 178 211q61 61 125 104q78 51 150 51q119 0 137 -162q6 -49 6 -98q0 -47 -8 -141q-10 -111 -34 -258.5t-48 -290.5l8 4q156 49 336 88q186 43 344 60q25 135 57.5 256.5t85.5 304.5q16 55 23 69q8 16 14 20.5 t21 4.5q33 0 32 -19q0 -8 -3 -18t-3 -14q-20 -92 -61 -298t-58 -298q27 2 78 2q104 0 152.5 -11.5t93.5 -29.5q16 -8 25.5 -21.5t9.5 -29.5q0 -23 -14.5 -39.5t-38.5 -18.5q-12 0 -19 8q-4 4 -4 11q0 6 3 12t3 12t-6 10l-6 3q-71 24 -170 24h-8q-41 0 -111 -4l-12 -68 l-19 -126q-23 -172 -26 -293q-4 -45 -4 -138q0 -76 6 -155q14 -133 35 -228q14 -55 26 -96q20 -49 31 -63q6 8 7 18t1 17q2 10 14.5 18t24.5 8q10 0 17 -6q8 -2 8 -14q1 -8 1 -15q0 -43 -20 -77q-16 -29 -57 -29q-27 0 -51 20q-21 18 -35 49q-43 82 -78 228q-14 66 -24 129 q-16 125 -17 233q0 160 27 351l14 112l17 88l4 29q-266 -25 -576 -125l-104 -33l-9 -2q-70 -393 -88 -600q-10 -150 -10 -213q0 -78 6 -128t6 -56q0 -23 -8 -41.5t-24 -18.5q-6 0 -12.5 3.5t-12.5 3.5q-31 2 -35 43q-18 111 -18 223v41q0 260 82 706q-109 -37 -291 -112 q-44 -20 -74 -20q-7 0 -14 1q-16 4 -21 10q-3 5 -3 10q0 20 53 40q63 27 174.5 73.5t189.5 75.5l37 189q43 225 51 272q31 170 31 299q0 182 -70 182q-14 0 -30 -8q-49 -23 -105 -72q-84 -72 -156.5 -162t-148.5 -206q-106 -158 -139 -269q-14 -47 -15 -84q0 -25 4.5 -34 t16.5 -9q10 0 16 2q25 8 39 5q8 0 12 -9q2 -4 0 -8t-6 -6q-39 -25 -82 -25q-23 0 -34 5q-43 14 -43 77z" />
<glyph unicode="I" horiz-adv-x="491" d="M-215 -604l14 12l11 8l28 21q35 25 84 47q63 31 154 59q-27 68 -51 203q-12 86 -15 131q-4 37 -4 113q0 98 8 178q12 121 45 289q2 16 23 110l22 88q41 170 87.5 310.5t119.5 339.5q16 45 29 67q6 14 12 18.5t17 4.5q37 0 37 -21q0 -10 -2.5 -18t-4.5 -15 q-29 -94 -83 -291.5t-83 -314.5l-28 -117q-12 -51 -27 -126q-37 -193 -49 -289q-16 -135 -16 -252q0 -141 20 -270q6 -43 19.5 -75t17.5 -40q74 16 184 22h11q18 0 51 -4q41 -4 65 -16q31 -12 31 -33v-2q0 -33 -23 -47q-4 -4 -10 -4t-8 8q-2 12 -13.5 16.5t-13.5 4.5 q-37 6 -75 6q-84 0 -187 -21q-6 -20 -26 -37q-12 -12 -25 -12q-12 0 -20 16l-9 17q-90 -27 -125 -41q-31 -10 -65.5 -28.5t-46.5 -24.5q-12 -8 -37 -21q-12 -4 -16 -4q-12 0 -23 8q-18 12 -4 27zM-147 1368q0 8 10 18l24 17q139 74 300 111.5t305 37.5q29 0 77 -4 q100 -10 166 -41q41 -25 60 -41q39 -39 39 -96q0 -10 -5 -39q-6 -29 -18 -53q-8 -18 -23.5 -28.5t-31.5 -10.5q-18 0 -29 8q-12 7 -12 15t6 16q4 4 4 6q23 45 23 80q0 55 -52 86q-35 23 -61 27q-12 2 -40 8t-48 8q-33 4 -101 4q-123 0 -263 -35t-251 -92l-26 -12 q-25 -8 -37 -4q-14 4 -16 14z" />
<glyph unicode="J" horiz-adv-x="1269" d="M-102 -561q0 150 90 334q100 211 291 426q328 369 741 592q23 12 24 34q18 115 19 195q0 70 -12 143q-20 135 -90 230q-63 82 -150 82q-31 0 -68 -11q-61 -16 -129 -57q-164 -94 -297 -260q-158 -193 -223 -422q-6 -16 -14 -49l-14 -98q-2 -12 -10.5 -18.5t-20.5 -6.5 t-17 2q-14 8 -14 27q0 80 12 129q47 229 193 424q162 219 371 325q121 63 235 64q174 0 262 -144q49 -76 72 -180q20 -96 20 -201q0 -59 -6 -118q0 -14 2 -19q16 6 51 17.5t62 19.5q59 18 100 19q39 0 60 -15q18 -8 18 -26q0 -25 -27.5 -41.5t-60.5 -16.5q-16 0 -25 4 q-10 6 -10 11q-2 6 8 12q4 2 16.5 6t14.5 18l-10 4q-6 0 -10 -2t-9 -4q-80 -20 -178 -69q-16 -8 -18 -29q-41 -197 -118 -388.5t-183 -393.5q-135 -254 -264 -416q-117 -154 -234 -238q-106 -80 -213 -98q-37 -4 -51 -4q-145 0 -176 125q-10 45 -10 82zM-4 -557q0 -14 4 -43 q6 -57 33 -90q23 -29 53 -29q10 0 16 2q29 7 45 15q86 37 166 110q104 96 207 240q158 219 301 524q125 262 191 506q2 4 5 14t1 19q-12 -2 -22.5 -9.5t-14.5 -9.5q-295 -184 -528 -428q-211 -213 -338 -440q-82 -147 -111 -293q-8 -57 -8 -88z" />
<glyph unicode="K" horiz-adv-x="860" d="M-350 117q0 23 20 41q23 23 62 28q33 8 75 9q59 0 125 -19l66 -20q6 4 6 16q14 141 42 297t34 188l12 66l8 43q76 416 117 604q10 53 31 115q4 14 9 26.5t9 20.5q14 27 49 27q23 0 31 -11q4 -8 4 -16q0 -18 -10 -23q-16 -6 -21.5 -16t-7.5 -21.5t-2 -17.5 q-29 -125 -53 -305l-10 -64l-113 -745l-12 -109q12 6 24.5 14.5t20.5 12.5q195 135 409 344q287 285 488 598q59 94 84 154l12 30q0 2 1 11.5t11 13.5q20 4 29 4q10 0 17 -2q12 -2 16 -18v-13q0 -12 -8 -41q-33 -84 -76 -153q-322 -537 -823 -910q-94 -70 -207 -133v-2 q-10 -6 -10 -18q0 -14 18 -25q123 -59 211 -84q53 -14 94 -14q37 0 62 10q55 18 77 49q18 23 11 41l-2 9q0 8 14 12q12 4 20 4q23 0 35 -12t13 -29q0 -8 -7 -21q-6 -20 -34 -45q-76 -59 -201 -59q-76 0 -154 23q-76 25 -123 45q-6 2 -16 7t-18 3q-6 -43 -7 -113 q0 -129 17.5 -262t48.5 -180q8 8 9 19.5t1 15.5q2 10 13.5 16t23.5 6q10 0 21 -6q6 -4 6 -14q0 -55 -25 -90q-14 -25 -53 -25q-35 0 -55 23q-15 14 -31 51q-37 84 -64 231q-18 129 -18 254q0 57 2 86v12q0 10 -6 19l-41 -12q-31 -12 -66 -19q-51 -10 -94 -10q-33 0 -49 2 q-37 6 -66 27q-27 23 -26 49zM-248 121q0 -16 17 -27q12 -10 32 -10q55 0 121 35q-59 29 -119 31h-6q-14 0 -20 -3q-18 -4 -25 -20v-6z" />
<glyph unicode="L" horiz-adv-x="593" d="M-29 -88q0 209 56 512q8 47 22 113.5t23 101.5q37 174 88 334t147 440q23 57 29 72q6 16 12 21t17 5q37 0 36 -22q0 -4 -6 -35l-116 -422q-43 -154 -80 -307l-27 -127q-43 -217 -66.5 -381t-23.5 -326q0 -252 39 -348t121 -96q37 0 102 18q82 25 169 65t103 48l134 60 q23 8 65.5 28.5t77.5 28.5l16 4q25 0 47 -23q14 -12 15 -24q0 -10 -15 -19q-61 -33 -79 -41q-270 -119 -410 -165q-70 -23 -94 -27q-56 -14 -105 -14q-219 0 -278 313q-18 90 -19 213z" />
<glyph unicode="M" horiz-adv-x="1884" d="M-205 860q0 29 17 82q29 80 92 172q78 104 159 186q76 72 136 107q86 53 159 53q129 0 156 -166q10 -51 10 -127q0 -59 -6 -118q-16 -201 -78 -547q-33 -199 -51 -332t-29 -266q-4 -57 -4 -86q0 -25 2 -39q53 338 158 678q90 297 197 532q63 137 118 217q27 41 54 64 q37 33 82 33t67 -46q23 -43 33 -112q12 -96 12 -238l-2 -143q-4 -176 -26 -428l79 237q137 387 316 697q72 131 147 219q41 45 66 63q41 35 88 35q55 0 61 -67l2 -50l-2 -47q-8 -143 -32.5 -299.5t-28.5 -185.5l-29 -172q-49 -291 -65 -438q-27 -207 -27 -375 q0 -199 37 -377q20 -96 72 -168q2 -2 10 -13t0 -20q-4 -4 -14 -4q-4 0 -29 6q-33 12 -55 37q-57 61 -84 144.5t-39 191.5q-12 104 -13 211q0 57 5 164q12 166 57 432l43 234q45 229 63 344q2 18 18.5 118.5t22.5 192.5q2 12 2 39q0 25 -6 39q-18 -10 -39 -39 q-74 -86 -157 -236q-205 -371 -334 -760q-59 -170 -96 -303q-16 -59 -31 -109t-27 -95q-33 -111 -39 -152q-2 -10 -6 -27.5t-4 -29.5q2 -4 2 -15q0 -33 -27 -43q-12 -4 -18 -4q-14 0 -22 6q-23 10 -23 45q0 18 10 107l13 90q29 242 40 363l17 159q0 23 4 60q18 240 18 395 q0 160 -20 248q-2 23 -11.5 46t-21.5 23q-16 0 -36.5 -33.5t-22.5 -37.5q-57 -86 -119 -226q-135 -305 -246 -712q-68 -256 -108 -494q-12 -66 -19 -127q-8 -66 -14 -95.5t-17 -37.5q-8 -6 -23 -10t-26 -4q-35 0 -43 43q-18 88 -26 231l-2 64v26q0 165 24 328q26 176 76 426 q35 172 61 324q6 37 15.5 119.5t9.5 160.5q0 215 -80 215q-10 0 -35 -8q-66 -29 -112 -74q-229 -215 -314 -393q-8 -20 -12 -47v-4q0 -18 10 -33q10 -14 37 -23q25 -6 51 -6q10 0 15 -2q12 -4 6 -20q-6 -27 -26.5 -43.5t-47.5 -16.5q-23 0 -59 15q-66 31 -66 102z" />
<glyph unicode="N" horiz-adv-x="1255" d="M-389 549q0 57 23.5 114.5t64.5 133.5q61 115 160 233q88 113 192 211q61 61 133 107q88 51 158 51q125 0 147 -164q8 -41 9 -96q0 -63 -11 -142q-12 -121 -32.5 -238.5t-55.5 -293.5q-39 -199 -61.5 -326t-34.5 -258q0 -16 -3 -53q-2 -22 -2 -43q0 -14 1 -27 q45 205 95 384.5t122 392.5q131 385 295 677q63 117 141 213q29 35 64 64q39 33 86 33q53 0 59 -66q4 -25 4 -54q0 -19 -2 -40q-8 -158 -53 -473l-25 -166q-6 -47 -26.5 -181t-30.5 -247q-20 -184 -20 -330q0 -209 43 -403q25 -96 73 -164q2 -2 9.5 -12.5t-0.5 -18.5 q-9 -4 -15 -4q-2 0 -26 6q-27 10 -56 35q-55 59 -82.5 140t-42.5 188q-16 106 -16 241q0 43 4 125q8 176 47 420l41 227q53 315 55 334q4 25 17.5 122t17.5 183q2 10 2 33t-6 43q-18 -10 -39 -39q-76 -88 -149 -229q-197 -365 -316 -739q-72 -225 -123 -407.5t-96 -387.5 q-8 -47 -33 -150l-6 -18q-6 -20 -15 -26.5t-30 -4.5q-4 2 -9 4t-11 2q-35 2 -41 43q-14 88 -19 224v43q0 176 29 347t88 433q47 199 70 315q30 165 30 291v8q0 182 -73 183q-16 0 -33 -9q-51 -23 -111 -71q-156 -127 -327 -369q-57 -80 -93 -142.5t-55 -125.5 q-16 -57 -16 -84q0 -25 4 -34t18 -9q10 0 17 2q6 0 18 3t23 1q10 0 14 -8q6 -8 -6 -17q-47 -24 -83 -24h-3q-20 0 -39 6q-47 10 -47 78z" />
<glyph unicode="O" horiz-adv-x="1202" d="M-16 743q-1 27 -1 53q0 258 126 447q164 246 444 297q57 8 88 8q127 0 229 -75q94 -70 142 -199q45 -115 49 -273q2 -12 1 -22t-1 -18v-14q0 -161 -43 -369q-76 -360 -230 -678q-104 -217 -225 -357q-41 -53 -106 -100q-72 -51 -156 -51q-106 0 -172 82q-49 59 -70 157 q-30 119 -30 264v9q0 174 32 375l2 12q0 10 -6 22q-49 150 -65 322q-8 70 -8 108zM78 752q0 -61 6 -123q8 -82 18 -123q6 4 11 20q25 94 43 142q18 47 34 75q23 35 60 35q45 0 55 -39v-6q0 -10 -16 -14q-2 -2 -6 -2q-8 0 -29 10q-18 -39 -33 -86q-29 -96 -65 -307v-10 q0 -12 6 -29q43 -113 96 -180q8 -8 8 -19q0 -10 -24 -14q-4 -2 -11 -2q-29 0 -47 20l-51 54l-2 -45l-6 -86q-2 -35 -2 -105q0 -143 20 -244q18 -98 50 -151q23 -45 61 -72q23 -16 49 -16q14 0 31 6q32 10 65 37q66 49 133 143q145 199 244 463q150 381 185 741q8 66 8 148 q0 102 -17 184q-29 139 -90 223q-39 55 -98 89t-131 34q-41 0 -88 -12q-207 -63 -332 -246q-135 -199 -135 -493z" />
<glyph unicode="P" horiz-adv-x="960" d="M-346 672q0 43 27 104l6 12q35 80 116 181q98 115 152 168q236 236 522 368q147 66 279 84q66 8 100 8q82 0 164 -24q82 -25 127 -81t45 -136t-35 -174q-61 -166 -178 -322q-264 -358 -647 -596q-49 -31 -99 -55q-29 -16 -28 -39q-4 -57 -8 -84q-2 -29 -4.5 -79t-2.5 -77 v-26q0 -102 13 -203q12 -123 41 -197q12 -39 22 -47q6 6 7 17.5t1 15.5q2 10 14.5 17.5t24.5 7.5q8 0 17 -4q8 -6 8 -17q0 -57 -21 -90q-18 -27 -55 -27q-12 0 -24 5q-37 10 -64 67q-41 90 -72 238q-20 117 -20 252q0 70 2 102l10 102q-96 -37 -184 -45q-10 -2 -29 -2 q-29 0 -53 6q-45 8 -74 48q-14 16 -14 36q0 23 14 39q29 35 70 51q45 20 96 27h35q29 0 45 -2q31 -4 51 -20q16 -10 2 -21q-21 -22 -44 -22q-7 0 -15 2q-18 6 -39 6q-59 0 -123 -39q-20 -12 -33 -33q-6 -8 -5 -11t11 -7q29 -4 45 -4q104 0 242 61q10 4 10 23q12 86 31 172 q16 80 55 219q35 121 87.5 262t103.5 274l20 56l33 71q12 23 33 23q14 0 31 -6q20 -6 12 -25q-27 -66 -51.5 -143.5t-32.5 -100.5l-33 -104q-98 -297 -141 -508q-20 -90 -27 -137q8 -2 17 2q158 92 327 244q244 215 398 454q84 129 118 242q25 74 25 131q0 86 -45 135 t-125 55q-14 2 -45 2q-109 0 -258 -51q-190 -66 -414 -231q-100 -74 -196 -170q-94 -94 -158 -172t-103 -164q-25 -57 -24 -92v-8q0 -14 5 -20.5t17 -6.5q10 0 18.5 2t18.5 2l17 -2q12 -6 12 -12q2 -8 -8 -15q-43 -14 -72 -14q-25 0 -55 10q-39 14 -39 62z" />
<glyph unicode="Q" horiz-adv-x="1157" d="M-41 651q0 158 78 338q92 217 242 373q92 98 213 151q94 37 176 37q35 0 65 -6q98 -14 166 -88q57 -70 86 -176q27 -96 31 -209q2 -35 2 -102q0 -203 -41 -408q-57 -299 -164 -565q-86 -215 -195 -371q-51 -76 -122 -141q-76 -66 -154 -82l-35 -6l-4 -27q0 -14 8 -17 t37 -7h2h18q105 0 175 63q28 28 28 69q0 26 9 25q8 0 16 -6q31 -16 31 -61q0 -43 -25 -68q-76 -86 -205 -86q-38 0 -63 10q-37 10 -61.5 39t-30.5 66q-96 10 -160 88l-16 -8q-14 -6 -29 -6q-27 0 -45 26q-6 8 -6 17q0 8 12 14q31 20 43 27q-12 27 -29 84q-22 88 -22 193v9 q0 31 4 88q12 190 65 383l2 11q0 8 -8 24q-94 133 -94 305zM57 651q0 -63 11 -106q2 -18 12 -45t20 -47q8 25 40 99.5t57 106.5q27 37 63 64q31 25 72 25q27 0 44 -14.5t17 -37.5q0 -14 -14 -16h-12q-14 0 -27 20q-8 10 -12 10.5t-13 -8.5q-41 -41 -71 -102 q-47 -90 -84 -229q-2 -6 -2 -15q0 -14 10 -24q59 -74 133 -123q119 -80 270 -137q66 -27 127 -35l27 -4q12 0 17.5 6t13.5 27q88 238 139 466q53 256 53 445q0 137 -22 250q-14 74 -37 121q-37 80 -90 118q-57 41 -121 41q-33 0 -60 -8q-78 -20 -143 -67q-88 -57 -166 -156 q-152 -195 -217 -412q-35 -109 -35 -213zM84 -164q0 -90 12 -151q6 -41 23 -88q125 65 171 65h1q37 0 65 -35q20 -23 21 -51q0 -8 -4 -25q-6 -18 -37 -83l-10 -19q4 0 4 2q53 25 92 62q49 41 110 122q104 145 191 351l4 14q-88 0 -178 29q-240 74 -404 200q-2 2 -5 4.5 t-7 2.5t-4 -5l-6 -18q-31 -154 -37 -307q-2 -23 -2 -70zM154 -479q18 -29 55 -60q8 -6 33 -16q8 37 28 82q2 6 25 55q-41 -12 -141 -61z" />
<glyph unicode="R" horiz-adv-x="1105" d="M-334 551q0 16 12 45q27 49 56 90q190 281 362 453q242 242 525 368q133 61 278 86q49 6 100 6q90 0 166 -22q84 -27 128 -83t44 -136t-34 -174q-57 -158 -181 -324q-264 -356 -647 -598l-100 -55q-27 -12 -29 -39q0 -27 -8 -84v-6q0 -10 10 -27q82 -117 141 -174 q35 -35 78 -59q23 -12 45 -13q16 0 25 5q131 45 178 157q8 25 8 41q0 23 -12 47l-4 17q0 10 16 10q37 0 60 -35q16 -27 16 -59q0 -27 -10 -47q-53 -127 -189 -170q-25 -8 -59 -9q-68 0 -135 39q-45 25 -115 95q-12 16 -26.5 30.5t-26.5 30.5q-6 -4 -6 -16q0 -207 30 -355 q8 -43 29 -98q27 -70 84 -129q6 -4 12.5 -11t1.5 -14q-6 -8 -16 -8q-35 0 -63 23q-74 59 -113 149q-37 82 -53 191q-20 143 -21 258q0 29 4 94v51v4q0 12 -10 29q-10 12 -27 10q-53 -12 -81 -12q-57 0 -97 18q-20 8 -28 15q-35 25 -35 59q0 23 18 41q31 31 78 31 q88 0 158 -60l12 -10q10 -6 16.5 -5t8.5 11q4 14 8 39q23 158 84 365q57 197 190 538q12 37 21 56l32 71q12 23 33 23q14 0 31 -6q20 -6 12 -25q-27 -66 -84 -246l-35 -104q-92 -279 -141 -508q-6 -29 -12 -62.5t-14 -76.5h6q8 0 16 5t12 7q162 102 312 236q244 215 399 456 q78 121 119 242q24 71 24 127q0 90 -45 140t-127 56h-43q-117 0 -258 -49q-203 -72 -415 -233q-205 -150 -404 -402q-121 -152 -199 -272q-2 -4 -9 -13t-5 -22q18 6 57 33q12 6 23 6q4 0 20 -4q12 -6 7 -16l-11 -9q-43 -33 -86 -53q-16 -8 -37 -8q-14 0 -22 2 q-18 6 -25.5 14.5t-7.5 20.5zM-256 567l2 -2l2 -2q-2 2 0 2q0 2 -4 2zM37 199q0 -14 8 -22.5t21 -8.5q55 0 98 18q-33 35 -62 52q-12 4 -20 4q-18 0 -31.5 -12.5t-13.5 -30.5z" />
<glyph unicode="S" horiz-adv-x="1269" d="M-141 614q0 23 10 58q14 37 34.5 68.5t55.5 76.5q86 109 176 199q137 129 213 188q145 121 275 197q104 63 202 92q50 12 104 12h15q4 0 10.5 -1t16.5 -5q57 -12 57 -59q0 -16 -2 -27q-6 -27 -31 -72q-12 -18 -30 -18q-35 0 -35 20q0 6 4 19q14 27 16 49q2 8 2 19 q0 33 -28 32q-6 0 -23 -4q-86 -18 -174 -74q-115 -66 -262 -186q-127 -106 -186 -166q-92 -92 -160 -170t-119 -164q-35 -51 -35 -90q0 -51 53 -69q27 -10 50 -11q23 -2 65 -2q41 0 62 2l55 2q135 8 201 9q195 0 325 -43q123 -41 192.5 -141.5t69.5 -231.5q0 -174 -110 -336 q-135 -199 -330 -332q-98 -68 -182 -98q-74 -29 -148 -29q-53 0 -98 15q-57 14 -92 59t-39 100q-1 10 -1 20q0 85 46 175q55 113 172 231q84 84 129 121q78 63 138.5 106.5t125.5 77.5q51 27 148 62q33 8 49 8q10 0 26 -4q16 0 17 -12l2 -4q0 -6 -12 -15l-33 -16 q-135 -53 -299 -176q-125 -98 -228 -211q-88 -98 -139 -201q-29 -55 -37 -119l-2 -24q0 -31 15 -74q12 -33 49 -55q29 -17 55 -16q7 0 14 1q61 12 123 41q76 35 176 109q156 123 256 260q90 129 113 242q10 55 10 100q0 63 -20 119q-55 170 -246 221q-88 23 -213 23 q-37 0 -86 -2.5t-76 -4.5q-82 -6 -161 -6q-106 0 -175 15l-20 6q-96 37 -96 114z" />
<glyph unicode="T" horiz-adv-x="675" d="M-424 1137q0 12 14 16l33 18q510 211 948 293q221 39 422 39q76 0 156 -6q139 -12 227 -43q57 -25 82 -43q55 -41 55 -102q0 -29 -11 -57.5t-32 -51.5q-27 -31 -69 -31q-12 0 -19 2q-31 12 -30 27q0 10 10 20.5t14 16.5q18 37 19 65q0 61 -72 95q-47 20 -86 26 q-57 12 -121 19q-28 3 -62 3h-17q-44 -1 -62 -1q-301 0 -645 -90q-322 -84 -645 -213l-35 -15q-14 -6 -35 -6l-16 2q-21 5 -23 17zM111 -74q0 96 8 176q12 121 45 291q8 31 13 59.5t9 51.5l23 88q41 170 87 311t120 336q16 45 28 68q6 14 12.5 19t16.5 5q37 0 37 -20 q0 -8 -3 -18.5t-3 -14.5q-39 -137 -94.5 -338t-71.5 -270l-29 -117l-26 -125q-37 -193 -50 -291q-16 -135 -16 -252q0 -143 21 -268q6 -49 18 -98q10 -39 27 -66q8 8 9 18.5t1 14.5q2 10 13 17.5t24 7.5q12 0 20 -7q6 -4 6 -14q0 -53 -24 -92q-14 -25 -51 -25t-58 25 q-14 14 -30 51q-37 84 -64 232q-12 84 -14 131q-4 39 -4 114z" />
<glyph unicode="U" horiz-adv-x="1247" d="M-287 678q0 57 23.5 115.5t68.5 140.5q137 248 367 436q102 84 205 107q33 4 51 4q72 0 104 -47q27 -37 27 -109q0 -68 -9 -134.5t-28 -164.5l-71 -334q-72 -322 -80 -368q-37 -180 -56 -367q-4 -70 -4 -102q0 -55 6 -113q12 -57 27 -84q6 -14 19.5 -26.5t25.5 -12.5 q6 0 19 8q29 29 65 88q47 74 86 164q45 98 131 334l41 111q70 186 123 346l119 327q12 31 43 132.5t51 162.5l39 127q2 6 9 27.5t7 28.5v2q0 43 33 49q16 4 27 4q27 0 30 -21v-8q0 -14 -12 -39l-39 -164q-14 -70 -31 -131q-90 -420 -151 -747q-16 -94 -29 -287 q-4 -94 -4 -141q0 -74 6 -144q14 -129 35 -223q10 -51 25 -94q18 -47 28 -61q8 8 9.5 18t1.5 14q2 10 13 18.5t23 8.5q8 0 17 -6q8 -2 8 -15q0 -53 -18 -90q-16 -27 -47 -26q-23 0 -46 18q-16 16 -32 49q-41 80 -76 224q-14 57 -25 124q-14 102 -14 222q0 43 2 63 q2 115 25 285q2 23 16 110l14 86l2 7q-23 -57 -82 -218t-110 -290q-76 -190 -137 -301q-31 -59 -62 -101q-27 -37 -65 -73q-20 -16 -49 -26.5t-58 -10.5q-31 0 -49 10h-2q-2 0 -2 2q-35 16 -53 55q-31 53 -41 131q-6 55 -6 109q0 80 12 164q23 184 156 741q4 14 14 57 q57 225 76 340l12 74q0 10 2 28.5t2 47.5q0 110 -50 110q-7 0 -15 -2q-59 -16 -121 -61q-72 -49 -162 -139q-96 -104 -185.5 -244.5t-113.5 -220.5q-14 -47 -14 -84q0 -29 6 -40t20 -11l21 4q6 0 20 3t27 1q12 0 16 -8t-8 -17q-45 -28 -96 -28h-4q-20 0 -43 6q-47 8 -54 59 q-2 10 -2 31z" />
<glyph unicode="V" horiz-adv-x="1220" d="M-283 969q0 6 2 9t5 7q8 16 14 23l147 200q45 53 74 76q49 39 107 39q61 0 98 -53q14 -18 35 -64q16 -39 37 -121q35 -170 51 -356q0 -14 4 -43l12 -158l19 -333q2 -16 10 -253t76 -415q4 -12 16 -37q20 -37 45 -61q20 -10 45 7t59 52q49 49 99 139q74 135 133 330 q92 305 147 672q18 137 38 331.5t30 342.5q4 86 4 129q0 45 -2 67v14.5t-8 16.5h-8q-35 0 -29 20q14 39 45 56q20 8 31 8q39 0 49 -41q4 -18 8 -47q6 -45 6 -92l-2 -93q-2 -66 -10 -206q-4 -98 -25 -285q-33 -283 -88 -547q-59 -260 -129 -457q-63 -176 -137 -295 q-55 -86 -104 -122q-63 -47 -129 -47q-43 0 -93 24l-8 6l-10 6q-16 12 -25 27q-41 53 -67 135q-41 133 -56 332l-2 72q-2 0 -2 1v1q-10 289 -26 598q-8 154 -18.5 269.5t-32.5 225.5q-12 66 -37 131q-14 33 -33 54q-14 20 -29 20q-8 0 -24 -10l-33 -23q-33 -31 -37 -39 q-94 -109 -188 -241q-10 -14 -21 -17q-4 -2 -12 -2q-10 0 -17 9q-4 2 -4 8z" />
<glyph unicode="W" horiz-adv-x="1597" d="M-481 1055q-2 6 4 14q27 27 80 88q92 109 157 160q55 45 106.5 69.5t110.5 24.5q94 0 140 -88q29 -51 45 -154q14 -100 14 -221q0 -133 -12 -277.5t-14 -172.5q-4 -27 -9 -76q-6 -90 -22 -248q-12 -147 -13 -219q0 -106 15 -174l10 -35q20 16 29.5 33.5t11.5 21.5 q53 98 100 248q10 29 58 170q43 143 88 266q49 135 82 201q14 31 30 53q20 35 68 35q33 0 50.5 -13t25.5 -40q16 -66 26 -148q27 -281 39 -401q16 -154 38 -277.5t61 -238.5q31 -94 77 -162q27 -39 52 -55q23 -8 44 10.5t56 56.5q47 57 86 150q61 152 98 342q61 305 78 684 q8 209 8 315q0 129 -6 258q-4 98 -18 197q0 4 -2 12.5t-4 12.5q-4 4 -11 4h-2q-27 0 -32 4t2 22q23 61 75 62q35 0 43 -27q8 -18 12.5 -32.5t6.5 -22.5q14 -63 19 -127t10 -160q6 -113 6 -227q0 -334 -31 -611q-31 -266 -82 -468q-47 -184 -109 -308q-43 -88 -92 -133 q-70 -61 -145 -61q-41 0 -78 16l-10 4l-10 6q-20 12 -29 23q-47 51 -82 129q-57 129 -92 324q-23 119 -34 250.5t-13 156.5q-12 160 -31 311l-6 30l-8 40q-14 -12 -23 -41q-51 -119 -133 -365q-4 -16 -22 -71q-61 -188 -101 -281q-31 -76 -67 -137q-25 -39 -37 -51 q-45 -49 -97 -49q-47 0 -71 51q-14 31 -20.5 64.5t-10.5 84.5q-4 49 -4 78q0 66 12 193q6 74 23 221q16 139 22 207l6 51q23 211 23 346q0 160 -27 262q-14 57 -41 92q-25 31 -47 31q-16 0 -35 -8q-51 -20 -114 -72q-55 -45 -154 -147q-43 -49 -78 -80q-16 -16 -41 -17 q-12 0 -18 3q-8 2 -10 8z" />
<glyph unicode="X" horiz-adv-x="1083" d="M-387 -602q0 12 12.5 17t14.5 5q90 41 161 121q145 147 257 313t227 379q18 31 39 70q-25 119 -64 344q-49 279 -115 498q-25 84 -53 139q-10 29 -35 64q-16 23 -25 27.5t-24 0.5q-16 -6 -26 -14q-8 -6 -15.5 -13.5t-13.5 -11.5q-10 -6 -23 -6q-16 0 -31.5 9.5 t-11.5 17.5q18 27 56 49q20 12 45 12q82 0 141 -92q12 -18 41 -74q27 -66 49 -129q55 -174 94 -362l43 -201l27 -141q47 90 80 157.5l55 112.5l10 17q203 408 308 571q43 70 106 152q43 55 78 83q76 74 164 74q43 0 78.5 -25.5t44.5 -54.5q2 -8 -11.5 -15t-31.5 -7 q-33 0 -47 20q-2 2 -11.5 19.5t-29.5 17.5t-56 -29q-41 -35 -69 -71q-68 -84 -115 -166q-119 -195 -350 -672l-21 -47l-47 -96l-6 -17v2l-18 -40l-78 -154q96 -461 135 -535l10 -20q39 -63 107 -64q102 0 254 154l7 7t13 5q12 0 24.5 -4t10.5 -14q-4 -31 -57.5 -87 t-135.5 -97q-35 -20 -90 -21q-12 0 -37 4q-76 18 -125 68.5t-90 162t-86 324.5q-43 -80 -92 -160q-123 -205 -241 -344q-80 -94 -153 -157.5t-157 -91.5q-18 -8 -43 -9l-22 2q-4 0 -18.5 4.5t-16.5 16.5v2z" />
<glyph unicode="Y" horiz-adv-x="1167" d="M-311 1234q-2 7 4 15q37 35 82 86q96 102 162 156q49 37 90 57.5t86 26.5q6 2 20 2q55 0 92 -39t43 -76q4 -29 4 -45q0 -49 -20 -139q-16 -86 -42 -185.5t-34 -129.5l-35 -125q-61 -246 -80 -396q-10 -76 -10 -133q0 -59 12 -125q14 -66 48 -102q23 -31 77 -31 q35 0 62 15q68 41 133 112q121 131 231 326q59 98 105.5 192.5t130.5 272.5l68 149q33 72 49 142q8 27 10 45q0 4 1 12t-1 12q-8 10 4 23q14 14 37 14q25 0 39 -14q16 -12 16 -35q0 -4 1 -19.5t1 -42.5v-6v-75l-4 -109q-4 -86 -8 -133q-8 -104 -14 -150q-6 -53 -23 -159 q-8 -55 -33 -166q-18 -86 -43 -164q-27 -88 -57 -160l-33 -86l-41 -100q-8 -18 -4 -43q2 -16 2 -47q0 -129 -88 -215q-23 -23 -47 -21h-6q-14 0 -25 -18q-53 -90 -84 -133q-51 -72 -106 -119q-39 -29 -69 -42.5t-68 -13.5q-90 0 -125 76q-18 43 -19 101q0 131 72 252 q96 168 248 262q88 53 166 53q47 0 73 -12q4 -2 11 -2q10 0 12 12q41 111 63 180q88 279 119 498q4 39 8 117.5t9 164.5q-16 -39 -28.5 -72.5t-23.5 -56.5l-16 -41q-125 -260 -221 -413q-94 -154 -203 -271q-66 -66 -115 -98q-84 -55 -178 -55q-115 0 -176 82 q-43 61 -53 139q-10 66 -10 117t6 102q10 111 35.5 212t76.5 282l13 41q29 94 41 143q35 115 53 205q2 16 9 50t7 62q0 31 -12 62q-8 20 -25.5 32.5t-38.5 4.5q-29 -10 -55.5 -26.5t-50.5 -37.5q-76 -57 -156 -143q-47 -49 -82 -78q-16 -16 -39 -16q-12 0 -20 2t-10 9z M264 -524v-17q0 -59 27 -96q18 -25 37 -25q10 0 26 11q31 16 60 45q53 53 110 143q94 158 176 350l25 54q2 4 2 12t-8 16q-23 29 -53 29q-8 0 -25 -4q-49 -14 -100 -51q-141 -100 -222 -258q-55 -111 -55 -209z" />
<glyph unicode="Z" horiz-adv-x="839" d="M-170 -479q37 119 80 207q154 360 387 757q219 369 377 590l104 142q2 4 9.5 11t9.5 17h-9q-8 0 -20 -3t-18 -5q-16 -4 -23 -4v-2h-8q-16 -4 -41 -7t-37 -5q-117 -12 -217 -13q-131 0 -226.5 20.5t-127.5 49.5q-23 23 -23 51q0 12 2 19q18 57 74 67q14 0 14 -14 q0 -12 -10 -19q-16 -12 -16 -22t14 -23q20 -20 74 -41q43 -14 122.5 -23t170.5 -9q72 0 143 6q115 20 213 57q27 8 49 31q61 72 127 117q58 37 109 37q10 0 20 -1q27 0 43 -14q16 -10 16 -29q0 -12 -8 -22q-8 -12 -45 -39q-68 -45 -176 -92q-31 -14 -47 -35 q-127 -154 -270 -381q-365 -584 -617 -1147l-33 -65q-18 -41 -49 -103l109 45q248 102 499 137q72 10 134 11q25 0 77 -4q49 -6 84 -21q55 -25 70 -72q8 -18 8 -43q0 -31 -16 -63q-8 -16 -27.5 -27.5t-40.5 -11.5q-10 0 -23.5 5t-13.5 16q0 6 5.5 15t7.5 15q4 20 4 33 q0 25 -8 43q-23 41 -82 51q-33 6 -68 6q-70 0 -125 -8q-33 -4 -57.5 -9t-40.5 -9q-238 -47 -500 -168q-23 -14 -31 -25q-12 -12 -8 -22v-6q0 -8 -10 -15q-12 -4 -20 -4q-16 0 -33 8.5t-25 20.5q-12 20 -6 41z" />
<glyph unicode="[" horiz-adv-x="346" d="M41 33q0 66 8 160q12 152 57 389q70 348 234 866q2 12 22 70q4 10 17 30q8 12 24 13q10 0 17 -9q6 -10 12 -10t12.5 2t8.5 2l47 19q8 4 26 4q10 0 27 -4q10 -4 10 -11q0 -8 -8 -12q-16 -6 -52 -21.5t-67 -17.5q-23 -2 -24 -22q-16 -70 -54 -205l-24 -90 q-55 -195 -105 -418q-35 -166 -53 -287q-31 -190 -39 -348q-4 -74 -4 -113q0 -113 19 -225q10 -59 28 -94q18 -39 37 -39q16 0 37 14q63 33 88 76q8 14 31 15q25 0 35 -17q4 -10 0 -18l-7 -13q-68 -86 -149 -98q-21 -4 -29 -4q-20 0 -57 8q-49 16 -78 76q-20 47 -31 104 q-16 100 -16 228z" />
<glyph unicode="\" horiz-adv-x="626" d="M137 1516q0 12 10 18q8 4 15 4q16 0 22 -12l19 -39q37 -94 61 -187q37 -139 73 -299.5t44 -201.5q61 -287 86 -432q47 -270 70 -455q4 -27 8 -80v-2v-4q0 -39 -29 -39q-18 0 -24.5 6t-10.5 25q-12 86 -41 254q-25 137 -82 407q-12 49 -16 74q-51 236 -145 707 q-10 53 -25.5 116.5t-21.5 87.5l-11 41q-2 2 -2 11z" />
<glyph unicode="]" horiz-adv-x="301" d="M-307 -59q0 20 16 24q33 0 41 -33l25 -79q27 -78 61 -111q12 -12 23 -12q12 0 35 30q10 14 16 29q25 45 45 105q35 102 59.5 210.5t51.5 251.5q43 227 104 678l14 127q18 119 19 180q0 74 -27 113q-6 8 -14 8l-19 -2q-57 -6 -157 -14q-4 -2 -11 -2q-12 0 -24 6 q-10 4 -14.5 12t2.5 17q10 14 26 12l12 -2q6 0 27 4l160 20q16 2 31 0q14 0 16 -12q2 -16 27 -37q10 -10 16 -49t6 -96q0 -70 -8 -143q-51 -487 -123 -885q-41 -225 -84 -361q-14 -47 -27 -84q-8 -25 -16 -43t-14 -30q-27 -51 -51.5 -76t-59.5 -25q-20 0 -39 9q-4 0 -12 4 q-76 37 -117 161q-14 49 -16 91v4z" />
<glyph unicode="^" horiz-adv-x="354" d="M76 973q0 8 4 16q29 80 74 164q14 25 47 29q4 2 10 2q31 0 43 -35q18 -57 22 -131q4 -57 5 -86v-6q0 -16 -2.5 -22.5t-12.5 -8.5q-6 -2 -18 -2q-31 0 -33 25l-2 36q-2 31 -10 70t-13 57q0 6 -6 11l-26 -48q-8 -12 -39 -75q-4 -8 -13.5 -13.5t-19.5 -3.5q-8 2 -8 11 q-2 4 -2 10z" />
<glyph unicode="_" horiz-adv-x="665" d="M2 22.5q-6 16.5 2 18.5q55 20 106.5 25.5t122.5 5.5q113 0 203 -17q12 0 21.5 -2t15.5 -4q18 -6 25 -29l2 -14q0 -18 -23 -14q-98 10 -174 10q-49 0 -139 -4q-29 -2 -69 -8t-46 -8q-12 -2 -26.5 11t-20.5 29.5z" />
<glyph unicode="a" horiz-adv-x="448" d="M-86 139q0 55 16 121q39 168 142 289q25 29 67 61q52 40 119 40q9 0 18 -1q18 -2 37 -16.5t23 -34.5q4 -12 4 -33q0 -29 -10 -65q-16 -78 -23 -117l-6 -43q-14 -92 -18 -188q-4 -57 -4 -93q0 -90 30 -143q8 -16 8 -20q0 -10 -26 -11q-23 -2 -44.5 18.5t-33.5 49.5 q-20 61 -20 160q0 131 34 307q-4 -6 -5 -11.5t-1 -7.5q-57 -174 -123 -292q-25 -47 -53 -80q-22 -27 -56 -27h-9q-37 0 -50 33q-14 29 -14 65zM-10 139q0 -41 12 -67q17 12 33 41q51 88 84 172q25 59 67 198q16 57 27 86v5.5t-4 5.5q-14 -4 -39 -25q-47 -41 -78 -94 q-82 -137 -100 -285z" />
<glyph unicode="b" horiz-adv-x="700" d="M-20 272q0 186 28 336q23 123 80 285q76 221 160 360q72 135 162 136q63 0 75 -64q4 -18 4 -55q0 -51 -14 -117q-43 -217 -186 -467q-94 -168 -215 -311q-10 -12 -13 -47l-4 -29q0 -119 39 -289l2 -2q4 41 35 151.5t90.5 233.5t141.5 193q32 26 72 26h3q84 0 119 -71 q14 -33 21 -80q8 -37 8 -123q0 -2 2 -14.5t9 -18.5t19 -2q25 8 44 8q14 0 14 -6v-2q0 -14 -23 -29q-29 -16 -45 -22q-20 -10 -28 -47v-4q-33 -197 -119 -344q-31 -53 -66 -84q-25 -23 -57 -23q-20 0 -31 4q-37 12 -43 51v17q0 25 2 37q20 115 92 227q53 86 138 162 q23 18 24 51q0 121 -12 180q-12 49 -27 74q-8 16 -18 16q-8 0 -19 -6q-27 -14 -53 -43q-63 -70 -106 -172q-41 -90 -72 -217q-4 -8 -6 -17.5t-4 -17.5l-27 -112l-8 -45q-4 -25 -18 -33q-6 -6 -15 -6q-12 -4 -18 -4q-35 0 -63.5 30.5t-39.5 65.5q-34 95 -34 270v10zM74 500 q4 0 10 6q172 246 260 485q59 166 62 283v4q0 37 -13 61q-10 -6 -33 -34q-31 -37 -75 -123q-121 -246 -187 -545q-16 -70 -24 -137zM342 -184q43 30 99.5 148t60.5 186q-37 -31 -77 -96q-41 -66 -65 -135q-20 -55 -19 -88q0 -8 1 -15z" />
<glyph unicode="c" horiz-adv-x="380" d="M-61 166q0 29 2 43q16 176 100 315q27 49 70 88q20 18 38.5 23.5t45.5 3.5q23 -2 38 -21.5t15 -44.5q0 -12 -6 -24q-6 -10 -25 -10q-25 0 -29 14q-2 6 -4 17.5t-10 19.5q-25 -23 -53 -72q-63 -117 -82 -258q-6 -62 -6 -101v-18q4 -45 18 -71q6 -10 11.5 -12t15.5 5 q23 10 51 35q49 39 116.5 126t106.5 177q18 35 66 35q18 0 18 -22q0 -8 -4 -21q-47 -106 -120.5 -205.5t-114.5 -128.5q-35 -27 -64 -39t-63 -12q-105 0 -125 94q-6 23 -6 64z" />
<glyph unicode="d" horiz-adv-x="475" d="M-84 197q0 37 10 82q33 150 140 243q25 25 69 49q35 20 78 27q27 154 80 332q0 6 4 18l29 90q51 147 108 265q20 45 60 100q25 33 53 51.5t65 18.5q51 0 58 -52q4 -25 4 -41l-2 -32q-12 -92 -33 -168l-37 -119q-63 -190 -149 -363q-72 -154 -162 -280l-8 -17l-2 -30 l-5 -43q-4 -82 -4 -125t2 -64q2 -90 9.5 -139t38.5 -94q8 -14 8 -21q0 -12 -31 -12q-23 0 -44.5 17.5t-33.5 43.5q-15 35 -29 114q-12 69 -12 166v30l-57 -103q-33 -45 -55 -65q-20 -20 -60 -21q-49 0 -67 31q-12 18 -21 57q-4 18 -4 54zM-6 186q0 -39 18 -73q21 17 35 37 q47 63 84 147q25 59 66 182q2 18 10 74q-20 -8 -35 -21q-49 -31 -84 -79q-94 -131 -94 -267zM301 598l8 -2q66 119 138.5 283.5t101.5 248.5q23 72 41 175q7 35 7 70q0 14 -1 28q0 20 -16 26q-59 -74 -95 -154.5t-84 -217.5l-26 -82q-35 -127 -58 -262q-8 -41 -8 -60z" />
<glyph unicode="e" horiz-adv-x="395" d="M-55 168q0 88 20 178q18 78 58 162q25 55 57 86q43 39 104 39q14 0 23 -2q33 -2 50 -23.5t13 -52.5q0 -31 -18 -68q-37 -88 -119 -163q-45 -39 -86 -45q-14 -2 -14 -17q-4 -41 -4 -63q0 -61 16 -109q10 -35 33 -61q14 -14 26 -15q10 0 27 11q29 18 55 51q59 78 88 135 q16 27 64 123l45 88q18 27 47 18q8 -2 12 -7t2 -13q-12 -41 -53 -129l-33 -70q-45 -90 -106 -170q-49 -61 -105 -74q-27 -10 -57 -6q-67 1 -106 58q-27 37 -37 94zM45 322q12 4 23.5 13t15.5 13q39 43 66 86q27 45 43 98q6 18 4 35q0 10 -7 23q-6 6 -14 8q-4 0 -12 -4 l-19 -16q-12 -12 -16 -21q-14 -18 -25 -43q-18 -35 -30 -78l-19 -59l-6 -31q-6 -20 -4 -24z" />
<glyph unicode="f" horiz-adv-x="518" d="M-31 43l8 4q14 2 17.5 8t1.5 21q-10 109 -10 196l2 78q2 135 26 258q76 371 267 678q61 102 143 187q45 45 84 69q41 25 76 25q57 0 84 -49q16 -31 20 -70q2 -14 2 -41q0 -51 -14 -119q-35 -180 -129 -362q-102 -209 -254 -381q-82 -94 -152 -125l-2 -2q-4 -2 -19.5 -6 t-35.5 -9q-2 -20 -2 -59q0 -41 3 -151.5t11 -110.5h2q8 0 33 10q98 47 208 138.5t155 177.5q14 31 61 41h8q12 0 12 -11q0 -10 -8 -26q-18 -45 -43 -84q-53 -82 -127.5 -142.5t-183.5 -119.5q-18 -10 -96 -46v-2q35 -25 67 -67q43 -55 74 -139q51 -135 51 -269q0 -35 -8 -65 q-6 -35 -37 -43q-25 -4 -35 -4q-27 0 -45 18q-10 8 -34 43q-41 66 -70 168q-41 127 -62 254l-12 82q-4 23 -22 24q-4 0 -13 5q-16 10 -2 18zM84 477q10 0 29.5 5t33.5 16q18 8 48 32q45 39 75 78q203 246 312 559q35 104 43 191q2 12 2 39t-6 51q-8 31 -21 43q-14 14 -35 8 q-27 -12 -49 -31q-37 -29 -70 -67q-74 -82 -131 -189q-158 -274 -215 -598q-10 -76 -16 -137zM119 -86v-10l12 -56q18 -88 35 -139q25 -100 55 -168q0 -2 2 -7t13 -3q-7 225 -109 385z" />
<glyph unicode="g" horiz-adv-x="471" d="M-639 -961q0 147 90 314q80 145 191 260q229 242 518 391q31 18 76 37q12 113 12 254q0 57 -2 106.5t-2 63.5l-21 -47q-55 -139 -117 -240q-25 -41 -45 -61q-31 -35 -77 -35q-39 0 -52 43q-6 25 -6 47q0 133 72 281q31 57 70 96q49 45 102 51q8 2 25 2q27 0 45 -10 q16 -8 32 -21q23 2 35 -16t17.5 -42t3.5 -28l4 -32l2 -27q8 -84 8 -190q0 -63 -6 -130v-30q20 8 45 8q18 0 30.5 -9t12.5 -24q0 -23 -16 -35q-12 -6 -21 7q-8 12 -27 12q-18 0 -30 -12l-2 -11q-18 -203 -78 -411q-86 -322 -236 -543q-92 -133 -188 -207q-113 -84 -223 -84 q-46 0 -95 16q-72 27 -110 101q-37 68 -37 155zM-580 -971q0 -55 19 -110q16 -49 49 -82q39 -35 84 -35q66 0 127 33q68 37 131 100q37 41 53 61q276 399 348 990q-10 -2 -22 -11q-209 -109 -408 -284q-156 -143 -250 -289q-104 -160 -124 -305q-6 -35 -7 -68zM2 170 q0 -16 4 -23q10 3 14.5 10t4.5 9q33 53 47 80q29 53 54.5 118.5t31.5 79.5l37 95q0 2 3 8t-3 10q-10 10 -21 10q-12 0 -23.5 -9t-13.5 -11q-41 -37 -67 -94q-55 -119 -66 -258q-2 -8 -2 -25z" />
<glyph unicode="h" horiz-adv-x="577" d="M-25 272q0 172 31 334q27 143 78 285q76 219 160 362q29 51 67.5 93.5t96.5 42.5q61 0 73 -66q6 -27 6 -55q0 -31 -6 -68t-8 -49q-47 -221 -186 -467q-98 -170 -215 -309q-12 -16 -15 -47l-2 -29q0 -133 33 -268l14 51q35 113 82 190q18 31 45 58q35 35 97 35 q39 0 59 -25q12 -12 33 -41q6 -6 18.5 -20.5t26.5 -20.5q16 10 29.5 28.5t23.5 35.5q8 14 39 81q14 27 49 27q31 0 25 -18q-2 -10 -12.5 -43t-24.5 -58.5t-35 -46.5q-47 -51 -119 -51q-47 0 -82 35q-2 2 -32 39q-2 2 -7.5 11t-15.5 13q-10 -6 -17.5 -17t-9.5 -15 q-55 -92 -94 -228l-18 -80q-4 -27 -2 -39v-6q0 -18 -25 -24q-8 -2 -16 -2q-25 0 -53 18q-38 24 -56 74q-35 104 -35 280zM72 498q4 2 10 8q178 258 258 485q61 168 63 283v4q0 29 -12 59q-18 -10 -33 -32q-43 -55 -75 -123q-125 -254 -189 -547q-16 -70 -22 -137z" />
<glyph unicode="i" horiz-adv-x="278" d="M-59 33q-1 16 -1 33q0 85 17 196q33 174 74 297q6 20 16 45q8 20 37 21q29 0 29 -17l-4 -16q-47 -156 -80 -393q-11 -72 -11 -137v-11q0 -8 1 -30.5t6 -30.5q25 29 51 76q41 72 137 264q6 12 18.5 39.5t26.5 46.5q20 31 49 20q18 -6 12 -22l-16 -43q-80 -176 -143 -297 q-41 -74 -68 -107q-31 -37 -80 -37q-45 0 -57 37q-10 31 -14 66zM131 926q0 8 8 11t19 1q10 0 17 -4t5 -12q0 -16 -26 -13q-11 0 -18 4.5t-5 12.5z" />
<glyph unicode="j" horiz-adv-x="321" d="M-799 -1004q0 145 68 297q78 176 225 338q184 209 418 361q94 61 143 90l2 4q2 0 2 6q0 14 -2 24.5t-2 14.5q0 18 -4 47q-4 61 -8 94q-12 84 -35 183q-2 8 -8 40.5t-25 47.5q-8 8 -8 12q0 6 15 12q12 4 18 4q16 0 29.5 -7t19.5 -17q29 -39 49 -131q25 -98 33 -150l6 -57 q4 -53 8 -55h3q2 0 4 2q44 34 79 34h2q10 0 27 -4q53 -16 55 -67q0 -25 -13 -41.5t-38 -18.5h-4q-14 0 -14 13q-2 6 -2 14q-6 35 -23 35q-12 0 -36.5 -18.5t-37.5 -26.5v-4q0 -43 -4 -125q-10 -117 -26 -209q-23 -123 -45 -211q-53 -211 -135 -377q-74 -152 -160 -248 q-72 -82 -158 -133q-80 -45 -154 -53q-14 -2 -43 -2q-59 0 -104 24.5t-72 67.5q-37 55 -43 131q-2 20 -2 59zM-717 -1004q0 -49 12 -98q14 -61 54 -100q39 -39 82 -39q16 0 39 6q59 16 112 57q61 45 113 105q82 94 151 242q98 207 158 497q23 106 35 199l16 147l-24 -14 q-90 -57 -131 -90q-274 -203 -443 -443q-70 -98 -112.5 -194t-55.5 -199q-6 -37 -6 -76zM-61 829q10 14 26 15h10q18 0 27 -6q8 -6 8 -13q0 -8 -7 -13t-17 -7h-15q-44 6 -32 24z" />
<glyph unicode="k" horiz-adv-x="532" d="M-145 100q-4 25 9 46.5t40 33.5q25 10 45 10q16 0 16 21q12 131 33 244q41 221 92 391q57 193 160 409q41 84 88 147.5t108 63.5q29 0 41.5 -10t14.5 -39v-14q0 -27 -6 -57q-45 -250 -134 -469q-115 -283 -292 -543q-4 -4 -3 -13.5t1 -13.5q0 -10 -2.5 -19t-2.5 -20 q-2 -6 -2 -18l-6 -55l-2 -5q0 -12 6.5 -16t16.5 2q2 2 22 17q78 72 129 126q41 41 150 193q12 16 16 27q2 2 5 10t12 8h10q14 0 29 -8q10 -4 10 -21q-2 -25 -17 -49q-29 -45 -72.5 -106.5t-68.5 -87.5q-29 -33 -90 -90l-47 -50q-2 -2 -13.5 -10t-13.5 -20q29 -27 88 -64 l49 -26q14 -6 31 -7q27 0 45 17q27 18 39 39q16 25 10 51l-2 10q0 6 5.5 10.5t11.5 6.5q27 6 46 -9.5t17 -42.5q0 -16 -16 -45q-51 -78 -156 -78q-72 0 -137 41q-39 23 -61.5 34t-28.5 16q-6 6 -15 6q-16 0 -20 -21q-2 -14 -2 -45q0 -47 8 -86q6 -27 14.5 -42t30.5 -23 q10 -4 6 -15q-2 -4 -8 -6t-8 -2q-29 -4 -56.5 10.5t-41.5 36.5q-35 49 -35 156q-2 8 -7 11t-18 3q-29 2 -48 15.5t-23 33.5zM-53 104l4 -2q8 2 6 10.5t-2 10.5l-2 4q-14 -10 -6 -23zM81 476q-1 -5 1 -9q59 68 144 261q86 194 146 394q55 182 55 264q0 8 -1 15q-6 0 -8 -2 l-23 -29q-59 -86 -123 -242q-109 -262 -190 -645q0 -2 -1 -7z" />
<glyph unicode="l" horiz-adv-x="509" d="M-27 371q0 117 15 213q18 125 44.5 230.5t71.5 207.5l31 70q47 98 101 176q49 72 90 110q39 39 73 52q31 14 56 14q84 0 84 -135q0 -49 -9 -84q-16 -111 -63 -234q-84 -219 -205 -387l2 2q-23 -35 -80 -104l-34 -39q-61 -66 -95 -92v-49q10 -205 50 -288t83 -83q4 0 17 4 q33 14 61.5 50t44.5 65q47 80 138 254q8 16 22 43.5t27 44.5q20 29 51 20q18 -6 12 -22q-14 -37 -18 -45q-70 -152 -146 -289l-35 -58l-6 -12q-43 -61 -75 -84q-40 -28 -83 -28h-3q-41 0 -87.5 32.5t-70.5 81.5q-18 43 -25 68q-20 70 -29.5 150.5t-9.5 144.5zM57 451 q21 14 38.5 35.5t21.5 25.5q98 121 166.5 237.5t117.5 249.5q49 135 66 240q6 31 6 66q0 12 -4 41q-4 31 -20 51q-16 16 -33 4q-25 -16 -49 -41q-45 -53 -88 -123q-88 -158 -150 -336q-53 -164 -68 -309q-5 -69 -5 -114q0 -15 1 -27z" />
<glyph unicode="m" horiz-adv-x="675" d="M-35 127q0 47 2 63q14 199 45 321t51 153q17 27 40 27q8 0 16 -3q20 -10 12 -26l-14 -44q-66 -276 -72 -489q25 100 66 219t55 146q16 29 27 41q25 27 53 26q20 0 37.5 -13t27.5 -38q16 -39 21 -107l2 -127q0 -113 2 -126q2 0 16 61q25 106 48.5 177t52.5 77q6 2 20 2 q29 0 45 -23q4 -8 26.5 -49t39.5 -55q8 -8 12 -8t12 6q12 10 28.5 35.5t25.5 38.5q8 10 20 14t25 -2q14 -2 10 -16q-59 -117 -88 -134q-18 -10 -39 -10q-37 0 -61.5 32t-39 64.5t-16.5 30.5q-6 -4 -17.5 -46t-15.5 -60q-35 -139 -57 -185q-17 -33 -57 -33q-7 0 -15 1 q-49 10 -51 104v121q0 25 1 55.5t-1 63.5q0 35 -10 71q0 2 -2 6.5t-4 4.5q-12 0 -27 -43q-14 -45 -46 -155t-44 -167q-2 -8 -9 -54t-25.5 -83t-47.5 -37q-80 0 -80 172z" />
<glyph unicode="n" horiz-adv-x="456" d="M-57 82v20q0 66 11 132q13 76 38 176q25 102 43 153q16 41 26 62q25 33 54 20q18 -6 10 -22l-14 -50q-14 -47 -41 -175t-37 -193q39 84 96 154.5t96 70.5q25 0 48.5 -38t48.5 -97q18 -41 22 -45q12 6 27.5 32.5t38.5 75.5l22 45q6 12 20.5 18.5t26.5 6.5q14 0 15 -14 q0 -8 -5 -17q-74 -204 -148 -204h-1q-37 0 -61.5 43t-41 87t-18.5 46q-45 -39 -98 -146.5t-74 -208.5v-6q2 -2 2 -5t2 -5q2 -6 2 -16q0 -31 -39 -35h-18q-19 2 -26 8t-13 25q-10 29 -12 61.5t-2 40.5z" />
<glyph unicode="o" horiz-adv-x="350" d="M-39 190q0 113 27 220q8 39 30 79q2 4 13 35q8 33 30 64q27 35 89 45l12 2q23 0 45 -19q27 -27 37 -71q12 -49 12 -127q0 -102 -35 -246q-12 -49 -31 -90q-8 -25 -24 -49q-25 -43 -90 -58q-7 -2 -19 -2q-18 0 -32 11q-18 10 -33 34l-12 31q-18 49 -19 141zM41 168 q4 -59 27 -109q2 -2 7 -12t19 -18q17 28 27 61q55 172 55 320q0 35 -2 53q-4 55 -18 90q-12 25 -29 33q-16 -20 -29 -58q-4 -10 2 -12q16 -10 21.5 -24.5t9.5 -40.5q0 -8 -4 -13.5t-14 -9.5q-12 -4 -21 -4q-4 2 -6 7t-6 7q-6 -14 -8 -30.5t-4 -26.5q0 -14 -9 -21 q-10 -6 -12 -12t-2 -14q-5 -48 -5 -106q0 -29 1 -60z" />
<glyph unicode="p" horiz-adv-x="548" d="M-57 -92l2 84q6 190 43 375q25 121 51 196l18 41q16 25 37 25q10 0 21 -6q10 -6 10 -15q0 -8 -3 -17t-5 -18q-16 -51 -24.5 -89t-14.5 -78l-10 -54q33 59 82 121q37 49 85 80t89 31q37 0 63.5 -22.5t36.5 -57.5q7 -29 7 -59q0 -11 -1 -23v-12q0 -6 4 -11q20 -16 21 -30 q0 -8 -6 -19q-6 -8 -19 -4q-6 2 -10 -8q-27 -90 -29 -98q-35 -100 -72 -154q-16 -27 -40 -45q-29 -23 -58 -23q-23 0 -41 11q-27 12 -35 43q-4 16 -4 49l6 43q51 182 205 237q8 2 10.5 5.5t2.5 11.5q2 14 2 43v31q0 4 -2.5 18t-10.5 25q-10 10 -20 10q-12 0 -37 -15 q-4 -2 -31.5 -20t-68.5 -72q-51 -63 -105.5 -191t-64.5 -294q-2 -29 -2 -84q0 -33 4 -98l4 -84l4 -43q10 -115 35 -205q8 -33 16 -49.5t27 -26.5q8 -2 6 -10t-10 -12q-13 -7 -27 -7q-20 0 -38.5 12.5t-31.5 32.5q-20 45 -30 99q-41 203 -41 430zM190 113q0 -23 9 -39 q2 -8 5 -9.5t9 1.5q7 4 23 20q25 25 51 78q25 51 51 135q6 27 12 57q-2 0 -4 -2q-55 -33 -90 -73.5t-53 -102.5q-12 -31 -13 -65z" />
<glyph unicode="q" horiz-adv-x="434" d="M-94 -428q0 51 8 76q35 150 135 280q20 29 53 56q16 8 19 20q4 18 29 129q-12 -4 -19.5 -14t-9.5 -15l-51 -55q-28 -26 -67 -26h-3q-16 0 -25 2q-29 2 -45 32q-22 34 -22 94v5q0 66 16 116q43 152 125 258q45 59 101 99q38 24 70 24h3q41 0 60.5 -20.5t15.5 -59.5l-6 -20 q2 -2 12 -8q12 -4 18.5 -7t6.5 -12l-4 -16q-33 -96 -57.5 -196.5t-57.5 -252.5q0 -4 -3 -14t-1 -18q6 -4 12 -5t10 -1q57 -2 80 -62q16 -49 21 -106q2 -27 2 -82q0 -127 -15 -240q-16 -133 -45 -246q-29 -90 -51 -131q-25 -39 -69 -39q-45 0 -66 41q-25 47 -31 115 q-10 63 -10 152q0 70 6 141q12 139 37 274q4 23 2 33v2q-80 -133 -104 -250q-4 -20 -4 -33v-9q0 -43 34 -54q8 -8 9 -12q0 -4 -4.5 -8.5t-8.5 -4.5q-6 -2 -20 -2q-33 0 -57.5 20.5t-28.5 49.5zM-20 154q0 -43 10 -74q6 -12 12 -13t14 7q23 23 41 47q62 82 113 184 q33 63 78 199q2 6 6 15t4 16q0 12 -12 20q-4 2 -3 9t1 9q0 8 -4 25q-2 18 -15 18q-6 0 -16 -6q-12 -6 -33 -22q-51 -49 -84 -105q-68 -106 -98 -231q-14 -53 -14 -98zM129 -588q0 -66 6 -127q0 -6 4 -37.5t19 -62.5q27 45 41 102q59 225 59 467q0 68 -2 103q-4 45 -14 80 q-4 20 -15 34q-8 16 -20 13q-14 -4 -17 -17q0 -4 -6 -35q-37 -217 -45 -325q-10 -109 -10 -195z" />
<glyph unicode="r" horiz-adv-x="456" d="M-43 119q4 125 15.5 212t41.5 189q16 45 29 66q20 31 53 20q16 -6 10 -22q-23 -59 -42 -173t-21 -253v-8.5t4 -12.5l37 103q4 14 9 29.5t9 33.5l56 164q23 57 43 92q20 33 32 47q29 35 76 35q25 0 46.5 -12.5t31.5 -36.5l19 -45q8 -18 18 -23q12 -2 12 -16q0 -12 -14 -21 q-14 -8 -33 -8q-18 0 -34.5 9.5t-24.5 23.5q-6 10 -15 35q-10 25 -16 31q-14 -12 -33 -50q-31 -57 -67 -180q-59 -203 -84 -266q-14 -37 -27 -64q-20 -43 -63 -43l-9 2q-39 2 -51 46q-9 32 -9 70q0 13 1 26z" />
<glyph unicode="s" horiz-adv-x="436" d="M-51 18q25 104 241 236q6 6 0 14q-8 10 -112 86q-57 41 -60 43q-38 32 -38 72q0 18 6 31q2 8 10 24q43 72 123 105q31 14 71 14q27 0 41 -4q25 -2 45 -23q27 -23 17 -47q-6 -18 -29 -12q-12 4 -12 12v13q-4 14 -9 20t-14 6q-2 0 -22 -4q-29 -10 -37 -16q-61 -35 -92 -88 l-8 -19q-8 -20 18.5 -45.5t83.5 -64.5q63 -45 92 -74l12 6q39 27 76 43q41 16 66 21h16q18 0 27 -5q12 -4 14 -11t-6 -15q-18 -14 -37 -10h-10q-10 0 -21 -7q-25 -12 -55.5 -34.5t-34.5 -28.5q-10 -10 -6 -27q10 -20 10 -53q0 -31 -9 -61.5t-23 -51.5q-33 -53 -93.5 -85.5 t-130.5 -40.5l-24 -3q-53 0 -71.5 28t-14.5 56zM29 -10q8 -2 20 2q96 27 148 86q41 49 41 102q0 10 -1 16.5t-1 8.5q-129 -92 -177 -146q-23 -23 -30 -43q-10 -23 0 -26z" />
<glyph unicode="t" horiz-adv-x="507" d="M-213 1001q0 20 29 31q41 12 131 29q162 31 217 41q43 109 86 201q33 66 63 106q25 33 52.5 51.5t64.5 18.5q27 0 43 -15.5t19 -42.5l2 -39q0 -12 -5 -45q-12 -94 -36 -182l-4 -12q88 10 182 10q55 0 88 -6q57 -10 81.5 -27.5t24.5 -50.5q0 -29 -32 -45q-12 -4 -23 -4 q-14 0 -18 4t-7 12q0 14 5 21q2 2 2 6t-17 8q-37 10 -108 10q-86 0 -201 -12l-14 -43q-68 -203 -160 -393q-84 -172 -172 -301q-12 -18 -12 -39q-2 -2 -2 -6v-70q0 -74 6 -145q4 -29 16 -79t29 -89q14 -37 26.5 -52.5t28.5 -15.5q8 0 29 10q37 27 78 95q100 168 200 436 q2 6 9.5 21.5t17.5 26.5t20 11q12 0 22.5 -8t10.5 -25q0 -43 -61.5 -193.5t-139.5 -297.5q-41 -76 -79 -107q-38 -33 -84 -33q-8 0 -17 1q-63 8 -100 40.5t-64 100.5q-23 55 -31 109.5t-14 136.5l-2 57q0 147 49 363q31 156 80 317l6 21q0 6 31 98l6 14l-49 -6 q-176 -29 -264 -45q-20 -4 -29 2q-10 6 -10 20zM82 463l6 -2q57 106 132 285.5t124 312.5q-49 -4 -131 -17l-4 -12l-27 -90q-35 -113 -67 -287q-4 -12 -25 -131zM240 1114l32 4q37 6 97 15q20 70 39 161q8 51 8 91v16t-2 16t-13 15q-53 -66 -89 -139.5t-72 -178.5z" />
<glyph unicode="u" horiz-adv-x="546" d="M-70 160q0 76 29 176q16 76 49 139q20 37 47 37h4q25 0 15 -29l-25 -96q-16 -82 -22 -123q-11 -72 -11 -114v-7q0 -10 4 -30l9 -31q14 12 26 29q68 82 146 237q68 145 86 191v2q8 27 18 45q8 23 37 22q16 0 22.5 -4t6.5 -14t-2 -17q-27 -88 -41.5 -161.5t-34.5 -208.5 q-10 -87 -10 -138v-16t1 -31.5t5 -33.5q25 27 53 79q63 109 135 256q39 76 47 91q23 29 49 20q20 -6 15 -24q-2 -6 -6 -17.5t-13 -26.5q-86 -188 -139 -290q-35 -66 -72 -111q-32 -38 -77 -38q-6 0 -13 1l2 2l-2 -2q-39 4 -51 39q-10 27 -14 68v47q0 61 10 139 q-59 -102 -109 -158q-43 -47 -84 -47q-37 0 -56 19.5t-27 60.5v4q-6 31 -7 64z" />
<glyph unicode="v" horiz-adv-x="458" d="M-23 244q0 43 3 63q10 156 40 283q20 78 52 141q18 35 47 37h4q14 0 16 -7t-2 -24q-53 -188 -65 -370q-4 -70 -4 -105q0 -78 10 -135q12 -51 18 -66q14 14 25 48q35 78 74 219q25 86 51 133q41 74 108 74q27 0 64 -13q18 -6 28 -6q14 0 35 14q18 12 33 13q8 0 25 -8 q10 -6 10 -11q0 -4 -8 -16q-29 -39 -105 -39q-27 0 -35 2q-6 2 -16 4t-20 2q-27 0 -50 -31q-16 -25 -55 -149l-24 -86q-25 -78 -41 -115q-25 -55 -49.5 -81.5t-57.5 -26.5h-2q-35 0 -57 32q-23 31 -39 93q-12 66 -13 131z" />
<glyph unicode="w" horiz-adv-x="575" d="M-41 94q0 74 6 131q6 74 32 220.5t42 203.5q2 14 14 43q6 12 19.5 19.5t27.5 7.5q10 0 21 -6q12 -6 4 -21q-10 -39 -30.5 -165t-31.5 -205q-10 -70 -17 -180q-5 -86 -5 -147v-32q4 20 33 125q16 55 18 66l33 114l33 103q6 10 12 15t18 5h2q20 0 27.5 -8t7.5 -29 q6 -123 25 -245q4 -35 18 -68q16 25 23.5 50.5t13.5 66.5q4 35 6 75.5t2 57.5q0 80 6 119q10 77 65 77h1q23 0 47 -12q31 -6 53 -6q29 0 51.5 10t32.5 25q14 23 35 22q29 0 29 -18q0 -14 -6 -21l-13 -16q-16 -16 -30.5 -25.5t-36.5 -15.5q-35 -8 -76 -8q-29 0 -51.5 4 t-28.5 4q-2 -16 -2 -42t-2 -50q-10 -186 -16 -219q-12 -51 -37 -95t-66 -44q-37 0 -65.5 41.5t-34.5 125.5q-18 -82 -42 -152.5t-34 -82.5q-23 -33 -63 -33q-18 0 -33 8q-15 11 -21 31q-10 33 -12 68q-4 66 -4 108z" />
<glyph unicode="x" horiz-adv-x="399" d="M-96 -31q33 63 73 164q33 82 54 125q8 20 8 31q0 12 -6 24q-59 188 -60 275q0 18 2 24q12 42 49 42q6 0 13 -1q12 -2 12 -28q0 -51 22.5 -139.5t30.5 -90.5l68 135q6 10 11 18.5t9 14.5q14 27 43 27q31 0 21 -25q-25 -70 -68 -166l-30 -67q-12 -29 -13 -47q0 -4 4 -21 l91 -246q23 -57 28 -79q6 -16 6 -23q0 -18 -18 -25h-10q-33 0 -47 29q-41 74 -72 156l-21 53l-20 51l-78 -162l-10 -20t-12 -23q-17 -30 -52 -30h-2q-39 0 -26 24z" />
<glyph unicode="y" horiz-adv-x="522" d="M-446 -844q0 117 55 252q84 195 250 373q213 236 446 362q20 14 21 39q1 18 1 36q0 68 -11 146q-15 101 -15 111q-14 -29 -24.5 -53.5t-14.5 -32.5l-14 -39q-27 -63 -29 -67q-59 -137 -119 -209q-37 -41 -69 -41q-29 0 -45.5 16.5t-24.5 50.5q-6 35 -6 68q0 29 4 78 q10 84 39 196q4 23 35 27h8q10 0 14 -6t2 -23q-2 -18 -17 -112.5t-15 -157.5q0 -41 12 -78l22 25q51 72 113 211q35 80 76 211l24 69q6 14 31 15q10 0 16 -2q14 -2 25.5 -9.5t17.5 -29.5q18 -53 28.5 -156.5t19.5 -232.5h2q33 14 71 14q25 0 41 -14q16 -12 19 -31 q2 -4 2 -10q0 -20 -8 -31q-4 -12 -21 -17h-4q-6 0 -10 2.5t-8 4.5l-7 6l2 12q2 4 3 10q0 16 -13 17q-14 0 -61 -27q0 -4 -10 -74q-2 -37 -11 -121q-20 -152 -39 -227q-31 -141 -67.5 -261t-114.5 -255t-201 -233q-92 -76 -196 -76q-68 0 -122 34.5t-81 104.5q-22 57 -22 129 v6zM-373 -852q0 -55 15 -104q20 -63 65 -99q31 -20 57 -20q50 0 132 51q61 43 110 98q-4 -4 47 60q227 328 275 946h-4q-4 -2 -19 -10q-195 -131 -313 -250q-166 -166 -262 -334q-84 -147 -99 -270q-4 -45 -4 -68z" />
<glyph unicode="z" horiz-adv-x="393" d="M-125 25q0 18 10 36q16 39 74 136l131 188q16 25 27 37q45 70 47 74q25 35 16 43q-2 2 -7 2q-16 0 -62 -21q-64 -28 -97 -28h-2q-25 0 -46 15t-27 34q-2 6 -2 14q0 10 24 8q20 -4 29 -4q31 0 69.5 10.5t59.5 14.5q20 6 65 10h9q73 0 73 -42q0 -21 -16 -54 q-10 -23 -28.5 -51.5t-26.5 -43.5q-125 -190 -170 -272q-25 -47 -43 -90q100 8 175.5 20.5t137.5 47.5q10 8 20 8q12 0 13 -25q0 -18 -17.5 -35.5t-42.5 -29.5q-35 -16 -116.5 -36t-169.5 -20h-17q-6 0 -15 1t-24 5q-51 14 -51 48z" />
<glyph unicode="{" horiz-adv-x="315" d="M20 481v2q0 8 6.5 12.5t8.5 6.5q51 51 106 143q109 186 168 430q47 182 47 389q0 49 9 90q12 49 57 41q14 -4 20 -14q16 -18 -6 -22q-16 -2 -16 -19q2 -27 2 -80q2 -27 2 -80q0 -152 -29 -280q-49 -227 -145 -414q-31 -59 -58.5 -98t-78.5 -101q41 -31 55 -76.5 t14 -107.5q0 -53 -14 -125q-12 -63 -53 -244q-16 -90 -17 -139q0 -16 4 -49q4 -39 15 -65q18 -41 43 -56q8 -8 8 -10q0 -12 -14 -12q-5 -2 -11 -2q-16 0 -32 10q-37 20 -54 63q-27 70 -26 168q0 82 28 197l13 51q25 102 32 156q4 49 5 69q0 33 -7 70q-8 33 -18 51 q-18 29 -37 29q-4 0 -6 2q-18 4 -21 14z" />
<glyph unicode="|" horiz-adv-x="454" d="M53 -80q0 305 64 629q39 197 133 586l31 122l57 240q4 16 16 45q14 29 58 33h2q16 0 20 -16v-11q0 -27 -16 -45q-6 -6 -10 -18q-47 -233 -105 -481l-80 -355q-70 -334 -88 -530q-10 -113 -10 -205q0 -59 2 -90l6 -35q0 -8 8 -16t7 -13.5t-11 -11.5q-14 -8 -37 -8 q-16 0 -26 12l-11 21q-10 51 -10 147z" />
<glyph unicode="}" horiz-adv-x="323" d="M-166 -342q0 8 4 33q2 18 23 18h4q18 0 22 -18q0 -2 1 -8.5t6 -8.5q12 16 18 33q29 55 55.5 124t34.5 87q82 215 123 358q35 113 47 218q4 37 4 57q0 27 -2 41l-4 16q-4 12 -8 15.5t-15 3.5l-38 -2q-16 0 -33 6q-33 8 -43 47q-2 10 -2 31q0 14 4 47q18 104 55 198l94 238 q41 106 56 184q8 49 8 76q0 18 -2 29q-4 35 -17 55q-14 23 -30 23q-14 0 -29 -15q-10 -10 -20 -10q-20 0 -13 18q12 14 25 21q20 10 41 10q20 0 39.5 -9t31.5 -26q20 -27 29 -78v-30q0 -27 -8 -84q-14 -80 -45 -165t-35 -97l-22 -58q-47 -127 -64 -178q-25 -90 -29 -135v-18 q0 -29 5.5 -38.5t21.5 -9.5h33q63 0 76 -49q6 -25 6 -51q0 -100 -23 -207q-43 -199 -151 -471q-41 -100 -60 -135q-31 -63 -65 -104q-25 -35 -64 -35q-43 0 -45 37v16z" />
<glyph unicode="&#xad;" d="M20 360q0 16 27 27q12 6 41 10q59 8 84 11q70 8 109 8q51 0 75 -4q47 -6 52 -27q2 -2 2 -6q0 -10 -7 -17q-8 -8 -30 -18q-25 -4 -37 -4q-18 0 -51 4h-29q-37 0 -57 -2q-27 0 -84 -4l-39 -2q-20 0 -39 6q-12 4 -14 12q-2 2 -3 6z" />
<glyph unicode="&#x2000;" horiz-adv-x="807" />
<glyph unicode="&#x2001;" horiz-adv-x="1614" />
<glyph unicode="&#x2002;" horiz-adv-x="807" />
<glyph unicode="&#x2003;" horiz-adv-x="1614" />
<glyph unicode="&#x2004;" horiz-adv-x="538" />
<glyph unicode="&#x2005;" horiz-adv-x="403" />
<glyph unicode="&#x2006;" horiz-adv-x="269" />
<glyph unicode="&#x2007;" horiz-adv-x="269" />
<glyph unicode="&#x2008;" horiz-adv-x="201" />
<glyph unicode="&#x2009;" horiz-adv-x="322" />
<glyph unicode="&#x200a;" horiz-adv-x="89" />
<glyph unicode="&#x2010;" d="M20 360q0 16 27 27q12 6 41 10q59 8 84 11q70 8 109 8q51 0 75 -4q47 -6 52 -27q2 -2 2 -6q0 -10 -7 -17q-8 -8 -30 -18q-25 -4 -37 -4q-18 0 -51 4h-29q-37 0 -57 -2q-27 0 -84 -4l-39 -2q-20 0 -39 6q-12 4 -14 12q-2 2 -3 6z" />
<glyph unicode="&#x2011;" d="M20 360q0 16 27 27q12 6 41 10q59 8 84 11q70 8 109 8q51 0 75 -4q47 -6 52 -27q2 -2 2 -6q0 -10 -7 -17q-8 -8 -30 -18q-25 -4 -37 -4q-18 0 -51 4h-29q-37 0 -57 -2q-27 0 -84 -4l-39 -2q-20 0 -39 6q-12 4 -14 12q-2 2 -3 6z" />
<glyph unicode="&#x2012;" d="M20 360q0 16 27 27q12 6 41 10q59 8 84 11q70 8 109 8q51 0 75 -4q47 -6 52 -27q2 -2 2 -6q0 -10 -7 -17q-8 -8 -30 -18q-25 -4 -37 -4q-18 0 -51 4h-29q-37 0 -57 -2q-27 0 -84 -4l-39 -2q-20 0 -39 6q-12 4 -14 12q-2 2 -3 6z" />
<glyph unicode="&#x2013;" horiz-adv-x="1221" d="M20 360q0 16 71 27q31 6 108 10q154 8 220 11q184 8 286 8q134 0 197 -4q124 -6 137 -27q5 -2 5 -6q0 -10 -18 -17q-21 -8 -79 -18q-66 -4 -97 -4q-48 0 -134 4h-76q-97 0 -150 -2q-71 0 -221 -4l-102 -2q-52 0 -102 6q-32 4 -37 12q-5 2 -8 6z" />
<glyph unicode="&#x2014;" horiz-adv-x="2245" d="M20 360q0 16 142 27q63 6 215 10q310 8 441 11q368 8 573 8q267 0 393 -4q247 -6 273 -27q11 -2 11 -6q0 -10 -37 -17q-42 -8 -157 -18q-132 -4 -195 -4q-94 0 -267 4h-153q-194 0 -299 -2q-142 0 -441 -4l-205 -2q-105 0 -205 6q-63 4 -73 12q-11 2 -16 6z" />
<glyph unicode="&#x202f;" horiz-adv-x="322" />
<glyph unicode="&#x205f;" horiz-adv-x="403" />
<glyph unicode="&#x25fc;" horiz-adv-x="655" d="M0 0v655h655v-655h-655z" />
</font>
</defs>
</svg>
